<?xml version="1.0" standalone="no"?>
<!DOCTYPE svg PUBLIC "-//W3C//DTD SVG 1.1//EN" "http://www.w3.org/Graphics/SVG/1.1/DTD/svg11.dtd" >
<svg xmlns="http://www.w3.org/2000/svg">
<metadata>
This is a custom SVG webfont generated by Font Squirrel.
Copyright   :  c Copyright 1997 International Typeface Corporation All rights reserved
</metadata>
<defs>
<font id="BodoniSvtyTwoITCTTBook" horiz-adv-x="1091" >
<font-face units-per-em="2048" ascent="1638" descent="-410" />
<missing-glyph horiz-adv-x="380" />
<glyph unicode=" "  horiz-adv-x="380" />
<glyph unicode="&#x09;" horiz-adv-x="380" />
<glyph unicode="&#xa0;" horiz-adv-x="380" />
<glyph unicode="!" horiz-adv-x="729" d="M248 1305q43 84 45 86q35 57 69 57q27 0 42.5 -18.5t64.5 -106.5l10 -18q-90 -528 -88 -914q0 -45 -26 -45q-27 0 -27 41q2 386 -90 918zM252 98q0 47 32.5 79t80.5 32q45 0 76.5 -33t31.5 -78t-31.5 -77.5t-79.5 -32.5q-47 0 -78.5 31.5t-31.5 78.5z" />
<glyph unicode="&#x22;" d="M180 850q0 6 6 20q74 160 123 363q31 125 60.5 168t87.5 43q82 0 82 -84q0 -57 -82 -158q-104 -127 -203 -325q-25 -51 -45 -52q-29 0 -29 25zM551 850q0 6 6 20q72 158 123 363q31 125 60.5 168t86.5 43q82 0 82 -84q0 -57 -82 -158q-106 -131 -202 -325 q-25 -51 -45 -52q-29 0 -29 25z" />
<glyph unicode="#" d="M94 524v119h211l72 246h-211v119h246l104 366h82l-104 -366h241l107 366h82l-107 -366h164v-119h-199l-71 -248h196v-117h-229l-107 -366h-82l107 366h-244l-104 -366h-82l106 366h-178zM387 643h244l69 246h-241z" />
<glyph unicode="$" d="M154 262q0 68 35.5 111t93.5 43q49 0 81.5 -31t32.5 -76q0 -109 -106 -108q-18 0 -26.5 2t-18.5 2q-14 0 -15 -15q0 -59 92.5 -110t200.5 -51v592q-131 61 -221 137q-119 98 -119 250q0 141 96.5 239.5t243.5 108.5v141q0 37 27 37t27 -41v-135q135 -6 208 -68 q102 -86 103 -196q0 -53 -32 -89t-79 -36q-104 0 -104 98t108 104q18 0 19 13q0 51 -80 100q-49 31 -143 33v-510q211 -102 272 -174q90 -104 90 -240q0 -156 -101.5 -266.5t-260.5 -132.5v-170q0 -31 -5.5 -38t-19.5 -7q-29 0 -29 45v166q-139 2 -229 55q-141 82 -141 217z M348 1098q0 -104 39 -162.5t137 -104.5v480q-176 -39 -176 -213zM578 35q199 37 198 264q0 109 -42 171t-156 122v-557z" />
<glyph unicode="%" horiz-adv-x="1464" d="M49 1100q0 145 92 244.5t230 99.5q72 0 231 -55q119 -41 205 -41q133 0 270 96h97l-787 -1444h-96l737 1358q-100 -61 -229 -62q-90 0 -176 33q78 -111 77 -242q0 -143 -88 -239t-227 -96q-145 0 -240.5 98t-95.5 250zM219 1106q0 -319 164 -320q80 0 115 93 q31 82 30 241q0 137 -41 226q-31 68 -108 67q-160 0 -160 -307zM762 332q0 150 93 246t239 96q135 0 217 -84q104 -109 104 -273q0 -184 -143 -286q-70 -49 -172 -49q-147 0 -242.5 98t-95.5 252zM932 336q0 -319 166 -320q78 0 112 93q33 86 33 245q0 133 -41 221 q-31 68 -110 68q-160 0 -160 -307z" />
<glyph unicode="&#x26;" horiz-adv-x="1492" d="M68 365q0 291 360 458q-4 6 -27 29q-104 109 -129.5 153t-25.5 115q0 145 95 235.5t247 90.5q145 0 234 -75t89 -195q0 -195 -284 -310q12 -14 102 -118q180 -207 318 -406q145 233 145 434q0 45 -18.5 52.5t-131.5 7.5q-61 0 -61 20q0 16 35 16h332q94 0 102 -2 q23 -6 23 -16q0 -12 -13.5 -14t-95.5 -6q-63 -2 -81.5 -14.5t-27.5 -63.5q-47 -256 -178 -461q41 -66 60 -102q49 -98 95 -123t185 -31q43 -2 43 -23q0 -16 -28 -16q-51 0 -189 6q-47 2 -63 2q-68 0 -148 -8q-8 23 -69 131l-11 16q-164 -174 -428 -174q-203 0 -329.5 109 t-126.5 283zM266 451q0 -174 97.5 -291t242.5 -117q182 0 322 145q-125 217 -477 611q-100 -76 -142.5 -155.5t-42.5 -192.5zM385 1223q0 -152 221 -330q147 80 148 262q0 115 -50.5 186.5t-130.5 71.5q-82 0 -135 -54t-53 -136z" />
<glyph unicode="'" horiz-adv-x="729" d="M184 850q0 6 6 20q74 160 123 363q31 125 60.5 168t87.5 43q82 0 82 -84q0 -57 -82 -158q-104 -127 -203 -325q-25 -51 -45 -52q-29 0 -29 25z" />
<glyph unicode="(" horiz-adv-x="624" d="M135 555q0 420 273 805q70 98 86 98t16 -16q0 -10 -14 -37q-178 -336 -179 -848q0 -520 175 -836q16 -31 16 -40q0 -14 -12 -15q-16 0 -68 66q-129 168 -211 398t-82 425z" />
<glyph unicode=")" horiz-adv-x="624" d="M115 -317q0 10 14 36q180 332 180 848q0 268 -41 460t-137 376q-16 31 -16 41q0 14 12 14q18 0 68 -63q74 -94 145 -244q150 -309 149 -582q0 -446 -305 -850q-41 -53 -53 -53q-16 1 -16 17z" />
<glyph unicode="*" d="M254 967q0 14 20 28q25 23 35 38.5t17 49.5q8 27 32 27q6 0 52 -8h16q55 0 111 22q-57 53 -160 68q-29 4 -29 25q0 14 2 24v19q0 23 -26 61q-14 20 -15 33q0 12 15 12q2 0 71 -35l8 -4l68 6q18 0 25 -49q10 -78 61 -135q20 53 21 98q0 47 -7 66q-2 6 -2 16q0 16 29 25 q49 12 76 49q20 29 35 29q16 0 16 -17q0 -10 -5 -32.5t-5 -34.5q0 -23 14 -54q6 -14 6 -20q0 -16 -39 -37q-74 -37 -110 -102q16 -2 30 -2q53 0 129 36q16 8 29 9q12 0 27 -23q20 -33 41.5 -44t50.5 -21q14 -6 14 -15q0 -23 -43 -18q-35 -2 -47 -7.5t-45 -35.5q-6 -8 -18 -8 t-49 34q-55 51 -123 64q27 -84 92 -150q12 -12 12 -20q0 -2 -22.5 -34t-24.5 -74t-18 -42q-14 0 -35 45q-16 35 -41 48q-37 23 -37 36q0 8 18 52q23 53 23 106q0 14 -2 27q-63 -43 -109 -129q-12 -23 -24 -23q-4 0 -11 4q-37 18 -57 19q-10 0 -57 -13q-4 -2 -17 -2 q-18 1 -18 13z" />
<glyph unicode="+" d="M121 651v74h389v379h74v-379h387v-74h-387v-381h-74v381h-389z" />
<glyph unicode="," horiz-adv-x="530" d="M154 84q0 53 34.5 87t87.5 34q74 0 120 -54.5t46 -138.5q0 -150 -114 -217q-82 -49 -135 -49q-16 0 -17 12q0 12 21 17q172 41 172 176q0 84 -45 112q0 -76 -76 -75q-39 0 -66.5 27.5t-27.5 68.5z" />
<glyph unicode="-" horiz-adv-x="624" d="M31 406v106h563v-106h-563z" />
<glyph unicode="." horiz-adv-x="530" d="M154 98q0 45 31.5 77t78.5 32q45 0 77 -32t32 -79q0 -45 -32 -76.5t-77 -31.5q-47 0 -78.5 31.5t-31.5 78.5z" />
<glyph unicode="/" horiz-adv-x="1001" d="M27 -61l845 1548h101l-846 -1548h-100z" />
<glyph unicode="0" d="M72 719q0 377 194 594q117 131 287 131q201 0 319 -182q147 -225 148 -576q0 -182 -54.5 -344t-148.5 -260q-100 -106 -256 -107q-213 0 -351 209t-138 535zM293 729q0 -719 272 -719q127 0 183 209q51 190 51 541q0 305 -68 504q-51 152 -180 151q-258 0 -258 -686z" />
<glyph unicode="1" d="M246 1249q0 16 24 19q96 10 194.5 58t158.5 114q23 18 30 18q16 0 17 -20v-39q-2 -16 -2 -37v-1225q0 -74 7 -86t50 -14l47 -2l35 -2h31q29 0 28 -19q0 -16 -45 -16h-24h-78q-78 2 -158 2q-141 0 -180 -2t-62 -2q-49 0 -49 18t29 19q45 0 96 2q63 2 68.5 31.5t5.5 128.5 v962q0 66 -4 78t-29 12q-10 0 -133 -10q-25 -2 -33 -2q-24 0 -24 14z" />
<glyph unicode="2" d="M51 16q0 16 107 103q256 209 364 340q188 227 189 534q0 207 -86 314q-66 82 -185 82q-117 0 -184 -72q-53 -55 -53 -111q0 -35 55 -37q143 -6 143 -125q0 -113 -118 -112q-76 0 -121 47t-45 129q0 152 106.5 244t280.5 92t289 -111q133 -129 133 -336 q0 -227 -151.5 -418.5t-510.5 -416.5q135 4 340 4q170 0 215 5t80 26q29 18 49 137q14 82 41 82q20 0 21 -31q0 -6 -4 -33q-10 -68 -33 -334l-2 -24q-211 10 -482 10q-145 0 -272 -4t-111 -4q-55 0 -55 20z" />
<glyph unicode="3" d="M106 197q0 63 40 101t108 38q53 0 88 -31t35 -78q0 -72 -96 -112q-39 -16 -39 -33q0 -27 53 -48.5t117 -21.5q156 0 253 106.5t97 278.5q0 346 -311 346q-31 0 -45 -2h-15q-27 0 -26 19q0 14 49 22q143 20 221 105.5t78 218.5q0 131 -67.5 210t-182.5 79 q-84 0 -146.5 -36t-62.5 -83q0 -18 29 -25q135 -33 135 -112q0 -104 -109 -105q-70 0 -111.5 41t-41.5 109q0 111 95 185.5t265 74.5q195 0 297 -100.5t102 -233.5q0 -184 -174 -272q-61 -31 -198 -52v-14q170 -6 274 -76q154 -102 154 -297q0 -170 -137 -290 q-152 -133 -388 -134q-193 0 -282 91q-58 57 -58 131z" />
<glyph unicode="4" d="M37 410q0 10 301 424q94 133 416 585q14 20 28 21q20 0 21 -39v-963h20q70 0 110 8.5t40 40.5q-2 129 -2 88q2 74 22 74q29 0 29 -57v-92l2 -148q2 -76 4 -95t2 -32q0 -20 -20 -20q-18 0 -23.5 23.5t-15.5 127.5q-4 16 -17 25q-25 14 -108 14q-23 0 -43 -2l2 -321 q10 -25 33.5 -31t115.5 -6q45 0 54 -8q2 -4 2 -13q0 -14 -82 -14t-459 -4q-20 -2 -45 -2q-41 0 -41 20t59 19q70 -2 127 8q25 4 31 21.5t6 76.5v248q-41 2 -94 2h-84q-29 0 -63 -2h-39l-260 6q-29 3 -29 17zM115 442q76 -6 325 -6q88 0 166 2v146q0 102 6 276q6 205 6 279 q-20 -33 -86 -125q-90 -125 -272 -373z" />
<glyph unicode="5" d="M117 207q0 63 41 103t106 40q53 0 89 -30.5t36 -75.5q0 -76 -100 -115q-45 -16 -45 -37q0 -33 60.5 -58.5t133.5 -25.5q143 0 215 98q98 135 99 365q0 168 -78 260t-221 92q-111 0 -244 -84q12 461 18 582q2 70 31 85t156 15h69q49 -2 78 -2h70q141 0 164.5 5.5 t29.5 33.5q8 47 29 47q20 0 20 -22q0 -14 -2 -23l-4 -47q-10 -115 -41.5 -142.5t-154.5 -27.5l-391 2q-8 -70 -15 -420q117 53 244 54q211 0 332 -112t121 -306q0 -262 -201 -402q-121 -84 -313 -84q-193 0 -283 101q-49 55 -49 131z" />
<glyph unicode="6" d="M115 602q0 256 111.5 467t297.5 307q156 80 340 80q43 0 43 -16q0 -14 -28 -17q-184 -16 -326 -133q-184 -152 -217 -516q113 106 254 107q115 0 215 -62q193 -117 192 -362q0 -199 -120.5 -340.5t-288.5 -141.5q-211 0 -342 174t-131 453zM330 485q0 -236 84 -381 q53 -92 155 -92q217 0 217 439q0 381 -235 380q-106 0 -163.5 -91t-57.5 -255z" />
<glyph unicode="7" d="M152 1044q0 25 10 80q23 125 28 213q4 63 27 88q14 0 84 -4q156 -8 225 -8l424 4q16 0 35 2h21q66 0 65 -16q0 -12 -237 -383q-133 -209 -182.5 -327t-49.5 -234q0 -59 29 -234q10 -61 10 -104q0 -145 -109 -146q-129 0 -129 224q0 207 191 544q121 213 313 496h-311 q-242 0 -279 -2q-45 -2 -62 -14.5t-24.5 -34t-33.5 -144.5q-8 -25 -25 -24q-20 -1 -20 24z" />
<glyph unicode="8" d="M80 369q0 305 330 387v10q-125 35 -196 118t-71 197q0 160 109.5 261.5t284.5 101.5q154 0 251 -74q143 -106 144 -274q0 -121 -72 -216.5t-178 -115.5l2 -8q328 -66 328 -367q0 -205 -170 -330q-115 -84 -285 -84q-182 0 -307 82q-170 111 -170 312zM289 383 q0 -174 72.5 -274.5t199.5 -100.5q109 0 160 62q82 98 82 299q0 373 -250 372q-125 0 -194.5 -95t-69.5 -263zM346 1090q0 -313 207 -314q92 0 129 68q47 88 47 248q0 182 -65 268q-39 51 -125 51q-193 1 -193 -321z" />
<glyph unicode="9" d="M94 971q0 197 120 335t290 138q209 0 341 -176t132 -455q0 -268 -124 -486t-325 -302q-147 -61 -295 -62q-53 0 -53 14q0 12 29 17q346 45 475 344q51 121 72 307q-113 -106 -254 -106q-135 0 -246 82q-162 119 -162 350zM303 967q0 -379 236 -379q104 0 163.5 95 t59.5 265q0 233 -86 369q-59 92 -162 92q-211 0 -211 -442z" />
<glyph unicode=":" horiz-adv-x="530" d="M154 98q0 45 31.5 77t78.5 32q45 0 77 -32t32 -79q0 -45 -32 -76.5t-77 -31.5q-47 0 -78.5 31.5t-31.5 78.5zM154 801q0 45 31.5 76.5t78.5 31.5q45 0 77 -31.5t32 -78.5q0 -45 -31 -77t-78 -32t-78.5 32t-31.5 79z" />
<glyph unicode=";" horiz-adv-x="530" d="M154 86q0 53 36.5 89t92.5 36q74 0 120 -55.5t46 -143.5q0 -150 -115 -217q-84 -49 -133 -49q-18 0 -19 12q0 12 21 17q172 41 172 180q0 78 -41 108v-8q0 -72 -80 -71q-43 0 -71.5 29.5t-28.5 72.5zM160 801q0 45 31.5 76.5t78.5 31.5q45 0 77 -31.5t32 -76.5 q0 -47 -32 -79t-77 -32q-47 0 -78.5 32t-31.5 79z" />
<glyph unicode="&#x3c;" horiz-adv-x="1110" d="M117 723v14l878 563v-94l-749 -477l749 -500v-94z" />
<glyph unicode="=" d="M121 551v74h850v-74h-850zM121 752v73h850v-73h-850z" />
<glyph unicode="&#x3e;" horiz-adv-x="1110" d="M117 135v94l749 500l-749 477v94l878 -563v-14z" />
<glyph unicode="?" horiz-adv-x="845" d="M86 1163q0 125 91 205t237 80q160 0 257 -87t97 -231q0 -111 -55 -202q-29 -47 -55.5 -75t-151.5 -134q-150 -129 -150 -223q0 -33 25 -113q2 -6 2 -18q0 -18 -16 -19q-23 0 -44.5 59.5t-21.5 120.5q0 82 33 155t121 185q131 168 131 291q0 113 -59.5 177.5t-161.5 64.5 q-94 0 -158 -66.5t-64 -167.5q0 -23 7 -22q2 4 12 20q20 39 76 39q92 0 92 -94q0 -98 -107 -98q-63 0 -100 41.5t-37 111.5zM256 98q0 47 33 79t80 32q45 0 76.5 -33t31.5 -78t-31.5 -77.5t-78.5 -32.5q-45 0 -78 32.5t-33 77.5z" />
<glyph unicode="@" horiz-adv-x="2027" d="M131 481q0 395 307 686q303 285 701 285q186 0 352 -59.5t266 -161.5q160 -164 160 -408q0 -313 -244 -510q-168 -135 -385 -135q-166 0 -166 117q0 10 6 43q-121 -164 -290 -164q-106 0 -174 72.5t-68 185.5q0 209 212 433.5t409 224.5q152 0 174 -134l2 9 q27 57 39 85.5t30 28.5q10 0 34 -4t36 -4q16 0 40.5 10.5t37.5 10.5q12 0 12 -15q0 -14 -49 -121l-62 -133q-25 -57 -75 -174l-84 -184q-59 -131 -60 -182q0 -49 64 -50q70 0 155.5 42t153.5 110t110 183.5t42 236.5q0 266 -179.5 435t-484.5 169q-367 0 -604.5 -258 t-237.5 -653q0 -340 190.5 -552t495.5 -212q346 0 615 223q139 115 209 248q12 25 34 24q27 0 27 -20q0 -35 -74 -123q-338 -408 -841 -408q-358 0 -597 229.5t-239 573.5zM799 367q0 -135 102 -136q150 0 291 299l111 234q57 121 57 151q0 47 -45 91q-35 33 -90 32 q-119 0 -248 -194q-178 -270 -178 -477z" />
<glyph unicode="A" horiz-adv-x="1232" d="M-49 18q0 18 64.5 20.5t93 20t45.5 66.5q264 754 430 1210q4 25 16 56l10 36q6 23 17 23q6 0 10 -12q27 -80 121 -334q74 -199 366 -998q16 -45 42 -57t106 -14q53 -2 53 -21q0 -18 -31 -18q-20 0 -37 2l-260 4l-260 -4q-14 -2 -30 -2q-41 0 -41 20q0 23 55 23 q180 2 180 37q0 2 -4 16l-16 55l-11 29q-18 63 -90 281h-438q-123 -328 -123 -377q0 -29 25 -35q6 -2 102 -8q59 -2 60 -21q0 -20 -54 -20q-94 0 -219 8q-31 2 -63 2q-33 0 -64 -4q-16 -2 -26 -2q-29 0 -29 18zM354 504h414q-33 92 -109 305l-98 281q-86 -226 -207 -586z " />
<glyph unicode="B" horiz-adv-x="1169" d="M51 1405q0 18 51 18h25q23 -2 41 -2l399 -4q221 -2 330 -74q127 -84 127 -243q0 -139 -104.5 -228.5t-292.5 -111.5v-12q186 -12 291 -78q156 -98 155 -297q0 -209 -190 -310q-92 -49 -265 -61q-47 -2 -278 -2h-250q-35 0 -35 18t64 19q74 0 87 15.5t13 92.5v1108 q0 90 -8 105q-14 25 -105 26q-55 1 -55 21zM422 123q0 -59 12 -68q20 -14 115 -14q141 0 225 90t84 264q0 258 -209 320q-61 18 -227 18v-610zM422 776h18l113 4q117 4 181.5 83t64.5 216q0 197 -90 262q-47 35 -179 35q-35 0 -108 -6v-594z" />
<glyph unicode="C" horiz-adv-x="1337" d="M88 715q0 322 181.5 525.5t467.5 203.5q104 0 167 -17.5t155 -70.5q45 -27 67 -27q18 0 35 33q27 57 43 57t17 -16q0 -8 -4 -27q-23 -98 -23 -368q0 -39 -6 -45.5t-17 -6.5q-20 0 -26 39q-27 164 -76 244q-100 164 -315 164q-166 0 -262 -111q-174 -199 -175 -581 q0 -342 144 -531q125 -164 332 -164q106 0 194 52.5t135 142.5q53 104 76 227q8 49 27 49q20 0 20 -30q0 4 -4 -56q-8 -119 -8 -229q0 -12 4 -50t4 -91v-19q0 -27 -16 -26q-16 0 -29 30q-29 68 -57 88q-147 -129 -355 -129q-301 0 -498.5 210.5t-197.5 529.5z" />
<glyph unicode="D" horiz-adv-x="1466" d="M41 20q0 18 65 19q84 0 105 31q8 14 8 77v1104q0 100 -15.5 116.5t-105.5 16.5q-47 0 -47 23q0 16 35 16q-2 0 45 -2t92 -2h219q369 0 523 -51q186 -61 300.5 -242.5t114.5 -416.5q0 -360 -252 -562q-184 -147 -493 -147q-8 0 -72.5 2t-187.5 2h-103l-161 -2 q-14 -2 -31 -2q-39 0 -39 20zM424 158q0 -57 3 -69.5t17 -20.5q49 -25 207 -25q221 0 357 156q143 164 143 518q0 340 -133 498.5t-416 158.5q-137 0 -166 -28q-12 -14 -12 -99v-1089z" />
<glyph unicode="E" horiz-adv-x="1191" d="M53 14q0 12 13 15q6 0 77 6q53 4 64.5 22.5t11.5 96.5v1151q0 59 -17.5 70t-111.5 11q-33 0 -33 19q0 18 45 18l351 -2q18 0 231 2h287q61 0 112 9q4 -88 19 -244l8 -88q2 -10 2 -27q0 -20 -18 -20q-23 0 -33 51q-39 184 -127 233q-66 37 -344 37h-168v-600h49 q229 0 279.5 35t68.5 203q4 43 23 43q23 0 22 -37q0 -37 -4 -108.5t-4 -108.5q0 -219 8 -301q2 -20 2 -35q0 -27 -22 -27q-14 0 -19.5 17.5t-17.5 113.5q-16 121 -100 150q-37 12 -193 12h-92v-688q451 0 528 18q135 31 154 263q4 51 26 51q20 0 21 -43q0 -8 -4 -100.5 t-4 -176.5v-67q-201 10 -795 10q-72 0 -141 -2h-94h-21q-39 0 -39 18z" />
<glyph unicode="F" horiz-adv-x="1112" d="M53 14q0 16 71 20.5t83 20t12 95.5l-2 1175q-2 37 -21.5 46t-105.5 11q-33 0 -33 23q0 20 37 20h33q-4 0 197.5 -2t330.5 -2q346 0 424 17q2 -27 13 -154q6 -86 16 -154q4 -29 4 -49q0 -29 -20 -28q-20 0 -29 51q-25 147 -100 215q-49 43 -152 53q-37 4 -164 4 q-94 0 -225 -6v-598h28q238 0 295 34q61 36 74 202q4 47 25 47q20 0 20 -31q0 -18 -2 -31q-6 -141 -6 -262q0 -156 8 -246q2 -8 2 -24q0 -25 -20 -25q-16 0 -20.5 12.5t-14.5 94.5q-16 125 -64.5 155.5t-191.5 30.5q-76 0 -133 -4l2 -209l-4 -401q0 -59 47 -76q18 -7 71 -7 q13 0 29 1q33 0 33 -17q0 -18 -41 -18h-20q-29 0 -78 2h-64l-305 -2q-39 0 -39 16z" />
<glyph unicode="G" horiz-adv-x="1361" d="M88 694q0 336 186.5 543t491.5 207q133 0 291 -74q47 -23 78 -22q39 0 51 49q10 29 24 28q16 0 17 -16q0 -6 -4 -43q-12 -117 -13 -168l2 -133q2 -72 2 -64q-4 -49 -26 -49q-18 0 -21 29q-10 199 -114.5 312.5t-274.5 113.5q-213 0 -337 -190.5t-124 -518.5 q0 -315 126 -500.5t341 -185.5q164 0 226 94q31 47 30 170q0 102 -19 121q-18 17 -112 17h-22q-29 0 -37 3t-8 13q0 23 45 23h37q23 -5 133 -5q37 0 84 1l172 2q14 0 30 2h23q41 0 41 -21q0 -18 -18 -18l-48 2h-18q-77 0 -88 -33q-8 -25 -8 -178v-66q-104 -90 -201.5 -127 t-232.5 -37q-324 0 -514.5 193.5t-190.5 525.5z" />
<glyph unicode="H" horiz-adv-x="1458" d="M57 16q0 16 41 21q27 2 56 4q45 4 57 20q6 10 6 115v1081q0 92 -9 108.5t-65 18.5q-63 4 -74.5 6.5t-11.5 16.5q0 16 27 16q8 0 35 -2q51 -4 241 -4q104 0 146 2q14 2 37 2q37 0 37 -20q0 -18 -67 -18.5t-80 -15.5t-13 -97v-471h616v440q0 109 -16 128q-15 18 -97 18 q-9 0 -18 -1q-31 0 -31 19q0 18 35 18h11h100q74 -2 110 -2q125 0 169 2t57 2q43 0 43 -18t-90 -21q-27 0 -39 -4q-20 -6 -25.5 -22.5t-5.5 -95.5v-1090q0 -98 10 -115q20 -23 119 -22q33 4 33 -17q0 -18 -39 -18l-283 2q-29 0 -84 -2t-82 -2q-41 0 -41 16t97 23 q51 4 59 17.5t8 95.5v598h-616v-580q0 -92 14.5 -108.5t95.5 -22.5q53 -4 54 -19q0 -18 -41 -18h-19q-49 0 -103 2t-65 2q-29 0 -86 -2t-172 -2q-41 0 -41 16z" />
<glyph unicode="I" horiz-adv-x="643" d="M55 18q0 16 54 19q82 2 96 19.5t14 117.5v1077q0 100 -10 113q-12 20 -113 25q-39 2 -39 16q0 18 25 18l276 -4q31 0 119 2l78 2q33 0 33 -18q0 -16 -90 -21q-51 -2 -62.5 -18t-11.5 -86v-1094q0 -117 10 -127q23 -23 133 -26q23 0 23 -17q0 -16 -25 -16h-20 q-12 6 -279 6q-51 0 -102 -4q-27 -2 -82 -2q-27 0 -27 18z" />
<glyph unicode="J" horiz-adv-x="671" d="M-47 -94q0 117 115 117q47 0 78.5 -29t31.5 -74q0 -39 -26 -70q-18 -23 -19 -34q0 -18 31 -19q66 0 92 80q14 43 14 252v1169q0 66 -39 82q-18 6 -98 6q-37 0 -46 4.5t-9 12.5q0 20 33 20q6 0 55 -2q63 -2 104 -2l301 4q66 0 66 -20q0 -16 -43 -17q-78 0 -96.5 -5 t-21.5 -17t-3 -80v-657l2 -191q1 -71 1 -128.5t-1 -102.5q-4 -127 -18 -191q-25 -106 -121 -183t-205 -77q-80 0 -129 42t-49 110z" />
<glyph unicode="K" horiz-adv-x="1363" d="M55 14q0 20 76 23q70 2 82 31q6 10 6 129l-2 1140q-2 43 -111 43q-49 0 -49 23q0 18 35 18q10 0 27 -2q33 -4 182 -4q160 0 203 4q23 2 47 2q37 0 37 -22q0 -12 -11.5 -15.5t-71 -5.5t-70.5 -16t-11 -92v-500l174 174q395 395 395 412q0 25 -83 24h-13h-10q-52 0 -51 21 q0 14 28.5 16t198.5 2h113q72 0 81 -2q20 -4 21 -20q0 -23 -45 -23q-24 1 -43 1q-58 0 -78 -5q-27 -6 -53 -33q-133 -139 -406 -417l-53 -54l-27 -28q12 -14 103 -111q172 -178 493 -571q68 -82 93.5 -98.5t99.5 -20.5q59 -4 59 -21q0 -18 -28 -18h-17l-246 2l-239 -2 q-12 -2 -27 -2q-39 0 -39 16t52 21q106 10 106 35q0 27 -559 665v-592q0 -72 22.5 -89t120.5 -17q23 0 23 -21q0 -18 -29 -18q-20 0 -37 2l-284 4q-27 0 -63 -3t-73 -3h-18q-31 0 -31 18z" />
<glyph unicode="L" horiz-adv-x="1155" d="M55 18q0 14 56 19q78 4 93 17.5t15 76.5v1151q0 76 -15.5 88t-109.5 12q-39 0 -39 23q0 18 25 18h18q68 -6 269 -6q18 0 71.5 3t87.5 3h23q37 0 37 -20q0 -12 -11.5 -15.5t-71 -5.5t-70.5 -19t-11 -108v-1208q55 -2 153 -2q240 0 338.5 24.5t133 92t40.5 182.5 q2 27 25 27q27 0 25 -31l-2 -51v-19q2 -14 2 -28v-80q0 -53 -7 -176h-22q-12 0 -59.5 4t-106.5 4l-852 6q-35 0 -35 18z" />
<glyph unicode="M" horiz-adv-x="1546" d="M37 1401q0 23 59 22q8 0 35 -2h107q121 0 170 2q10 -27 120 -321q47 -123 265 -717q39 133 79 262l218 678q18 59 32 98l308 2q68 0 78 -6t10 -18q0 -20 -35 -21q-57 0 -78 -4q-49 -8 -68 -33q-10 -14 -10 -239v-952q0 -82 16 -97q27 -18 134 -18h12q41 0 41 -21 q0 -20 -43 -20h-23q-29 0 -104.5 2t-116.5 2q-61 0 -143 -2h-111h-14q-43 0 -43 18q0 20 59 21q104 0 127 22q10 10 10 138v1060q0 -2 -22 -71q-82 -248 -238 -746l-96 -325q-29 -96 -41 -97q-14 0 -31 50q-59 186 -335 929l-82 220q2 -39 2 -107v-666q0 -375 6 -378 q14 -27 98 -27q68 0 68 -19q0 -20 -43 -20q-27 0 -49 2q-29 2 -52 2l-235 -6q-37 0 -37 18q0 20 117 23q49 0 57 16.5t8 106.5v981q0 170 -4 184q-8 29 -34.5 39t-114.5 16q-33 3 -33 19z" />
<glyph unicode="N" horiz-adv-x="1343" d="M-16 1401q0 18 30 18q41 0 104.5 -2t67.5 -2q6 0 58 2q68 0 131 2l706 -1050v911q0 63 -2 76.5t-16 20.5t-98 7q-74 0 -74 19q0 20 49 20h72h57q33 -2 39 -2q2 0 37 2h61h64q45 0 45 -20t-51 -19l-45 2h-37q-33 0 -39 -11t-6 -68v-1180q0 -109 -2 -127t-13 -18 q-12 0 -28 22l-263 383q-227 334 -552 834l2 -1143q2 -27 30.5 -34t137.5 -9q27 0 26 -17q0 -20 -53 -20q-18 0 -117 6q-33 2 -63 2q2 0 -36 -4t-116 -4h-20q-47 0 -47 18t40 19q121 2 140.5 15t19.5 87v1010q0 170 -69 213q-33 20 -117 20q-53 1 -53 21z" />
<glyph unicode="O" horiz-adv-x="1474" d="M88 717q0 319 185.5 523t474.5 204q272 0 456.5 -213t184.5 -529q0 -305 -183.5 -516t-449.5 -211q-283 0 -475.5 214.5t-192.5 527.5zM317 707q0 -330 116 -512.5t325 -182.5q195 0 293 172q109 190 108 508q0 375 -153 584q-96 131 -269 131q-164 0 -254 -100 q-166 -184 -166 -600z" />
<glyph unicode="P" horiz-adv-x="1032" d="M47 18q0 14 43 15q96 0 111 18q16 8 18 41v1208q0 63 -35 78q-20 8 -71 8h-21q-6 -2 -14 -2q-31 0 -31 19q0 20 57 20h451q233 0 342 -82q123 -92 123 -260q0 -199 -170 -309q-106 -70 -270 -70q-70 0 -158 15v-582q0 -47 4 -59q10 -29 45 -35q59 -8 115 -8q23 0 22 -15 q0 -20 -28 -20q-12 0 -21 2q-113 -2 -424 -2h-26q-62 0 -62 20zM422 748q16 -2 37 -3q135 0 229 60q117 74 117 272q0 307 -258 307q-86 0 -113 -28q-12 -12 -12 -64v-544z" />
<glyph unicode="Q" horiz-adv-x="1478" d="M88 713q0 197 82 367.5t222 267t339 96.5q238 0 395 -135q125 -106 195 -267t70 -342q0 -281 -149.5 -477t-399.5 -241v-64q0 -162 60.5 -222.5t219.5 -60.5q18 0 54 3.5t55 3.5q33 0 33 -23q0 -16 -62 -29q-111 -20 -229 -20q-199 0 -291 117q-51 66 -51 229v47l2 27 q-197 49 -309 151q-236 214 -236 572zM317 707q0 -338 114 -518.5t327 -180.5q231 0 332 238q72 170 71 440q0 373 -143 582q-96 141 -273 141q-207 0 -317.5 -181t-110.5 -521z" />
<glyph unicode="R" horiz-adv-x="1204" d="M45 1403q0 20 33 20q6 0 18 -2l273 -6q41 0 114 2q82 4 115 4q190 0 302 -85t112 -230q0 -143 -115 -236.5t-311 -109.5q-18 -2 -21 -6q0 -8 21 -9q215 -37 296 -150.5t107 -410.5q16 -168 115 -168q31 0 31 13q0 2 -2 4q-10 23 -11 37q0 43 45 43q49 0 50 -52 q0 -86 -144 -86q-160 0 -250 134q-39 57 -50 110t-34 270q-12 131 -83.5 185.5t-233.5 58.5v-645q0 -41 65 -51q18 -2 95 -4q27 0 26 -17q0 -18 -35 -18h-24q-18 2 -178 2q-31 0 -105 -2h-94h-80q-45 0 -45 18q0 14 59 17q96 2 105 24q8 10 8 80v1131q0 82 -17.5 98 t-105.5 18q-51 1 -51 19zM422 776h10q188 0 274 72q87 74 87 239q0 293 -254 293q-68 0 -92.5 -18.5t-24.5 -65.5v-520z" />
<glyph unicode="S" horiz-adv-x="1019" d="M100 -4q0 16 2 24q16 125 17 232q0 20 -4 115q-2 12 -2 32q0 31 24 31q20 0 29 -49q53 -365 346 -365q125 0 193.5 71t68.5 200q0 115 -66.5 195.5t-228.5 160.5q-195 96 -270.5 186.5t-75.5 223.5q0 170 109.5 280.5t277.5 110.5q70 0 193 -47q43 -16 63 -17 q23 0 30 8.5t13 43.5q4 20 23 20q20 0 20 -25q0 -16 -2 -24q-6 -49 -6 -119q0 -98 10 -156l2 -32q2 -23 -18 -23q-23 0 -31 47q-23 121 -106.5 202t-188.5 81q-102 0 -162.5 -65.5t-60.5 -178.5q0 -131 88 -211q49 -45 213 -127q193 -96 277 -195.5t84 -226.5 q0 -176 -134.5 -300t-322.5 -124q-111 0 -264 68q-41 18 -62 18q-25 0 -31 -59q-2 -31 -26 -31q-21 0 -21 25z" />
<glyph unicode="T" horiz-adv-x="1200" d="M35 1083q0 23 2 45l4 48q6 94 18 247h93l417 -6q25 -1 59 0q67 0 171 2l340 6q4 -115 26 -340q0 -6 2 -15t2 -11q0 -27 -24 -27q-25 0 -35 53l-8 74q-14 74 -47 125q-43 68 -142 86q-54 11 -90 11q-6 0 -12 -1q-96 -4 -117 -6v-1235q0 -74 39 -92q20 -10 115 -12 q25 -2 24 -19q0 -18 -32 -18q-16 0 -29 2q-123 4 -174 4q-68 0 -127 -2t-152 -2q-47 0 -47 16q0 18 88 21q63 0 82 26q10 16 11 84v1227q-203 -2 -252 -20q-129 -47 -152 -252q-6 -61 -29 -62q-24 0 -24 43z" />
<glyph unicode="U" horiz-adv-x="1363" d="M43 1403q0 18 29 18h37q10 0 47 -2h59l293 2q10 2 24 2q35 0 35 -22q0 -14 -12 -16.5t-82 -4.5q-29 0 -39 -4q-20 -8 -22 -28q-2 -8 -2 -117v-733q0 -270 86 -368.5t256 -98.5q311 0 352 354q6 53 6 451v116l2 164l-2 141v46q2 27 2 22q0 45 -43 55q-14 4 -84 4 q-41 0 -41 23q0 18 29 18q16 0 26 -2q25 -2 179 -2q23 0 51 2h39h30q47 0 48 -20q0 -18 -37 -19q-6 0 -41 2q-10 2 -29 3q-51 0 -61 -27q-4 -14 -4 -47v-768q0 -299 -112 -435.5t-360 -136.5q-297 0 -417 168q-80 113 -80 371l-2 821q-6 37 -49 45q-12 2 -76 2q-35 5 -35 21 z" />
<glyph unicode="V" horiz-adv-x="1296" d="M-23 1409q0 18 41 18h19q37 0 128 -3t130 -3q10 0 78.5 3t195.5 3h29q37 0 37 -20q0 -23 -74 -25l-125 -4q-43 -2 -43 -26q0 -4 4 -17l17 -53q4 -16 198 -577q33 -96 125 -367q338 956 338 1005q0 45 -85 46h-15l-64 -3q-25 0 -24 17q0 20 61 20h70q57 -2 84 -2h65l136 2 q37 0 36 -16q0 -16 -39 -18q-90 -2 -120.5 -27t-63.5 -115l-69 -190q-252 -690 -355 -1059q-6 -25 -20 -25q-16 0 -68 154q-92 281 -143 422q-55 156 -164 465l-98 276q-20 57 -45 76.5t-82 22.5q-68 2 -81.5 4t-13.5 16z" />
<glyph unicode="W" horiz-adv-x="1867" d="M-49 1411q0 18 33 19q14 0 24 -3q109 -6 234 -6q25 0 85 3t156 3h23q35 0 35 -18q0 -23 -64 -25q-127 -4 -127 -32q0 -57 377 -1067q137 346 205 510l-203 524q-16 43 -37.5 55t-79 14.5t-57.5 18.5q0 23 43 23q33 0 80 -4.5t164 -4.5h155l226 -4q76 0 182 8q12 2 29 2 q49 0 49 -20q0 -18 -35 -18h-35q-92 0 -139 -25q-20 -10 -76 -147q-25 -57 -82 -195l-37 -92q14 -41 90 -228q98 -238 162 -407q115 332 271 784q82 240 81 267q0 39 -71 38q-100 0 -101 23q0 20 41 20q35 0 56 -2q45 -4 82 -4l163 2q61 0 67.5 -5t6.5 -11q0 -18 -69 -21 q-78 -2 -103.5 -51t-79.5 -209q-92 -281 -164 -477q-123 -336 -223 -649q-8 -27 -20 -27q-10 0 -19.5 20.5t-54.5 143.5q-57 160 -125 322q-53 127 -104 262q-143 -346 -285 -723q-8 -25 -21 -25q-10 0 -24 35q-63 152 -471 1256q-29 78 -43.5 97t-71.5 21q-98 4 -98 29z M928 1354q0 -4 121 -355q47 102 110 271q8 23 25 59l4 17q0 37 -127 36h-25l-35 -2q-73 -3 -73 -26z" />
<glyph unicode="X" horiz-adv-x="1280" d="M-18 18q0 18 53 25l74 8q31 8 51 27q39 35 252 401q78 135 139 236l-234 438q-72 135 -99.5 175t-57.5 52q-33 6 -129 6q-25 0 -25 17q0 23 33 22q45 0 186 -4q70 -2 97 -2q240 0 264 4h28q43 0 43 -16q0 -23 -73 -23q-8 0 -15 1q-122 0 -123 -33q0 -37 234 -480 q84 123 184.5 292t100.5 190q0 31 -113 30q-55 0 -55 19q0 20 39 20q27 0 78 -2t77 -2q10 0 95 3t100 3h18q35 0 35 -18t-27 -18q-4 0 -65 -3q-70 -2 -95.5 -24.5t-86.5 -130.5q-80 -143 -234 -379l-22 -35q14 -27 276 -538q90 -176 129 -210q37 -32 141 -32h13q51 0 51 -19 q0 -18 -57 -18q-70 0 -142.5 2t-142.5 2q-90 0 -209 -4q-59 -2 -88 -2q-59 0 -59 22q0 20 47 19l92 -2q49 -2 59 2q31 6 31 39q0 31 -51 133l-219 442l-258 -436q-68 -115 -68 -135q0 -37 68 -43q-4 0 92 0q37 0 37 -21q0 -18 -31 -18l-232 2l-174 -2q-32 0 -32 18z" />
<glyph unicode="Y" horiz-adv-x="1243" d="M-35 1411q0 16 33 16q43 0 172 -4q74 -2 106 -2l238 2q14 2 33 2q37 0 37 -20q0 -18 -70 -19q-127 0 -127 -45q0 -35 129 -280l186 -354q51 92 117 227l121 244q68 131 68 172q0 27 -35 30q-60 9 -87 9h-9q-45 -2 -46 20q0 16 39 16l119 -2l68 2q39 1 71 2q138 0 138 -22 q0 -16 -35 -16q-113 -2 -139 -39q-25 -23 -177 -349q-68 -145 -127 -256q-41 -76 -47 -103.5t-6 -119.5v-387q0 -68 17.5 -80t121.5 -18q55 -4 56 -21q0 -16 -29 -16h-24l-287 6q-121 0 -199 -4q-12 -2 -29 -2q-29 0 -28 18q0 18 47 21q113 4 133.5 20.5t20.5 98.5v432 q-20 45 -119 239l-205 406q-31 59 -74 133q-23 20 -97.5 20t-74.5 23z" />
<glyph unicode="Z" horiz-adv-x="1150" d="M78 2l4 12q4 6 49 95q139 270 531 1001q80 150 131 258q-47 10 -205 10q-250 0 -316 -102q-16 -27 -41.5 -110t-33.5 -142q-6 -43 -31 -43q-20 0 -21 20q0 16 2 25l15 98q6 47 16 103l15 84q8 47 24 121q123 -12 385 -13q88 0 188.5 3t176.5 3h32q18 0 33 2 q-10 -33 -76 -167q-10 -31 -563 -1074q-25 -47 -74 -139q98 -6 240 -6q135 0 191 8q111 18 170 78q88 88 118 303q4 35 27 35q25 0 25 -25q0 -14 -3 -22l-10 -68q-14 -90 -37 -264q-4 -29 -10 -90h1l-94 2q-108 2 -230 2h-152q-291 0 -416 -12q-10 -2 -30 -2q-31 0 -31 16z " />
<glyph unicode="[" horiz-adv-x="624" d="M182 -299v1722h320q51 0 51 -24q0 -14 -8 -17.5t-60 -3.5q-109 0 -131 -10q-14 -8 -16 -20.5t-2 -75.5v-1417q0 -80 15.5 -94.5t101.5 -14.5h79q35 0 35 -22q0 -23 -61 -23h-324z" />
<glyph unicode="\" horiz-adv-x="1001" d="M27 1487h100l846 -1548h-101z" />
<glyph unicode="]" horiz-adv-x="624" d="M59 -276q0 23 41 22q129 0 158 6q23 4 28 17.5t5 68.5v1422q0 78 -5 94t-30 20q-41 6 -133 6q-49 0 -49 21q0 23 47 22h323v-1722h-319q-66 0 -66 23z" />
<glyph unicode="^" d="M121 676q0 16 24 47q160 197 299 569q43 115 54.5 135.5t33.5 20.5q20 0 31.5 -18.5t63.5 -139.5q154 -365 334 -624h-203q-147 193 -287 528q-74 -203 -182 -369q-113 -172 -146 -172q-22 0 -22 23z" />
<glyph unicode="_" horiz-adv-x="1064" d="M47 -186h971v-95h-971v95z" />
<glyph unicode="`" horiz-adv-x="1026" d="M244 1358h35l59 2h108l84 -182q0 -2 23 -54l29 -67q4 -8 4 -13q0 -10 -13 -10q-20 0 -143 129z" />
<glyph unicode="a" horiz-adv-x="813" d="M74 162q0 168 202 266q70 33 242 66v51q0 180 -18 237q-33 104 -148 105q-72 0 -120 -39t-48 -98q0 -16 26 -16.5t46 -25t20 -55.5q0 -90 -90 -90q-47 0 -77.5 32t-30.5 81q0 96 76 166q84 76 233 76q225 0 277 -123q18 -47 18 -187v-383q0 -94 2 -110q10 -74 59 -74 q57 0 95 41q20 23 30 22q10 0 11 -12q0 -35 -73 -72.5t-140 -37.5q-141 0 -148 145q-78 -152 -242 -152q-88 0 -145 52.5t-57 134.5zM231 217q0 -66 38 -107.5t96 -41.5q88 0 141 98q12 23 12 143v150q-154 -35 -220.5 -91.5t-66.5 -150.5z" />
<glyph unicode="b" horiz-adv-x="985" d="M-12 1368q0 14 22 14h29q113 0 217 48q31 14 43 14h8v-643q78 117 234 117q172 0 276.5 -118t104.5 -313q0 -213 -129 -362.5t-312 -149.5q-63 0 -132.5 27t-94.5 27q-23 0 -51.5 -19.5t-42.5 -19.5q-16 0 -17 67v1065q0 207 -26 224q-10 6 -80 6q-49 0 -49 16zM309 430 q0 -283 15 -336q23 -86 149 -86q121 0 178 92q84 137 84 377q0 193 -60.5 297.5t-168.5 104.5q-57 0 -108.5 -36t-70 -89.5t-18.5 -323.5z" />
<glyph unicode="c" horiz-adv-x="837" d="M63 430q0 211 125 349.5t314 138.5q121 0 214 -63.5t93 -147.5q0 -94 -92 -95q-90 0 -90 86q0 23 20 68q6 14 6 29q0 41 -42 67.5t-105 26.5q-123 0 -190.5 -106.5t-67.5 -299.5q0 -217 69.5 -334.5t196.5 -117.5q86 0 154 53q31 25 80 94q10 10 18 10q20 0 20 -16 q0 -27 -71 -100q-92 -96 -236 -97q-180 0 -298 129t-118 326z" />
<glyph unicode="d" horiz-adv-x="974" d="M63 444q0 211 112 342.5t292 131.5q139 0 209 -101v320q0 156 -14 192q-12 31 -37 29q-59 -6 -72 -6q-27 0 -27 18t23 19l74 -3h4q62 0 184 58q8 4 14 4q20 0 21 -49v-43q-2 -33 -2 -58v-706q0 -485 10 -520q4 -14 96 -15q29 0 29 -16q0 -14 -29 -14h-10q-16 0 -35 2h-16 q-100 0 -170 -41q-29 -16 -35 -17q-18 0 -18 25l2 63q-88 -84 -209 -84q-172 0 -284 132t-112 337zM250 455q0 -184 57 -316q25 -55 73 -91t99 -36q63 0 114.5 38t67 91.5t15.5 413.5q0 197 -43 252q-55 70 -141 70q-111 0 -176.5 -114.5t-65.5 -307.5z" />
<glyph unicode="e" horiz-adv-x="880" d="M63 438q0 205 118 342.5t294 137.5q145 0 243.5 -85t104.5 -219q-55 -9 -139 -8h-35l-143 2q-14 0 -246 -6q-10 -68 -10 -129q0 -207 79 -318.5t222 -111.5q82 0 131 37t106 141q8 16 23 17q16 0 16 -15q0 -20 -31.5 -72.5t-64.5 -84.5q-88 -90 -235 -91 q-184 0 -308.5 133t-124.5 330zM266 641h383q-8 246 -176 246q-166 0 -207 -246z" />
<glyph unicode="f" horiz-adv-x="540" d="M33 10q0 16 28 17q102 0 113 12q4 4 4 12l2 27v778q-76 0 -88 2t-12 16q0 18 37 19h65q8 260 70 375q94 176 283 176q90 0 147 -43t57 -113q0 -43 -25.5 -70.5t-66.5 -27.5q-39 0 -65.5 24.5t-26.5 61.5q0 31 27 72q6 10 6 18q0 47 -68 47q-115 0 -151 -147 q-18 -78 -19 -273v-100h135q41 0 41 -19q0 -18 -53 -18h-123v-801q0 -29 58 -28h27q62 0 69 -9q2 -2 2 -8q0 -14 -25 -14q-12 0 -20 2l-168 2l-223 -4q-37 0 -37 14z" />
<glyph unicode="g" horiz-adv-x="956" d="M-25 -270q0 117 91 176q45 29 143 51q-145 57 -146 176q0 147 189 205q-123 96 -123 254q0 147 94 236.5t248 89.5q84 0 136 -23t122 -90q66 96 162 96q117 0 117 -104q0 -94 -84 -95q-29 0 -52.5 19.5t-23.5 44.5q0 8 6 25.5t6 27.5q0 27 -29 27q-25 0 -47 -25.5 t-22 -52.5q0 -6 10 -69.5t10 -96.5q0 -139 -96 -233.5t-240 -94.5q-37 0 -135 31q-27 8 -35 8q-43 0 -77.5 -34.5t-34.5 -75.5q0 -106 129 -107q49 0 158 19q84 14 153 14q125 0 195.5 -65.5t70.5 -182.5q0 -176 -150.5 -292.5t-379.5 -116.5q-170 0 -267.5 68.5 t-97.5 189.5zM143 -252q0 -104 75 -167.5t198 -63.5q156 0 262 85t106 208q0 170 -200 170q-57 0 -169 -18.5t-167 -18.5q-105 -56 -105 -195zM303 614q0 -311 170 -311q154 0 154 291q0 297 -164 297q-160 -1 -160 -277z" />
<glyph unicode="h" horiz-adv-x="976" d="M-4 1368q0 12 10 14t70 4q104 2 200 50q8 4 29 10q14 -25 14 -158v-502q90 131 246 132q164 0 234 -91q35 -45 43 -127q4 -29 4 -137v-516q2 -20 106 -20q18 -4 19 -15q0 -16 -35 -16q-16 0 -31 2q-72 -2 -319 -2h-23q-27 0 -26 16q0 14 77 15q47 0 54.5 11t7.5 77v415 q0 186 -17 232q-35 94 -153 94q-98 0 -160 -88q-20 -29 -20 -127v-522q0 -55 2 -64q2 -20 16 -23t88 -5q25 0 25 -17q0 -14 -21 -14l-20 2l-162 2q-42 1 -76 1q-99 0 -112 -5h-21q-23 0 -22 14q0 16 22 17h31l30 2h6q42 0 44 28v920q0 328 -11 354q-12 20 -100 23 q-49 0 -49 14z" />
<glyph unicode="i" horiz-adv-x="514" d="M47 829q0 14 35 17q137 6 235 65l21 13q16 -31 16 -113q0 4 0 -20q-2 -25 -2 -80v-559q0 -82 3 -96.5t22 -18.5q31 -8 90 -8q29 0 29 -17q0 -18 -35 -18q2 0 -49 4q-61 4 -103 4l-213 -4q-10 -2 -24 -2q-23 0 -23 14q0 20 41 21q78 2 85 11t7 85l-2 621q-2 51 -5 60 t-25 9l-60 -2q-8 -2 -20 -2q-23 0 -23 16zM158 1284q0 96 92 96t92 -92t-92 -92q-39 0 -65.5 25.5t-26.5 62.5z" />
<glyph unicode="j" horiz-adv-x="485" d="M-74 -414q0 96 105 97q86 0 86 -72q0 -18 -13 -66q-2 -4 -2 -16q0 -18 13 -18q39 0 56 62t17 314l-2 904q-2 27 -30 26h-23q-8 -2 -94 -2q-23 0 -23 16q0 14 54 15h11q137 0 202 49q37 23 47 23q16 0 18 -24t4 -155l2 -243q0 -33 2 -88v-64v-397q0 -219 -75.5 -347 t-206.5 -128q-63 0 -105.5 32.5t-42.5 81.5zM162 1288q0 39 25.5 65.5t64.5 26.5q94 0 94 -94q0 -90 -90 -90q-41 0 -67.5 25.5t-26.5 66.5z" />
<glyph unicode="k" horiz-adv-x="960" d="M18 1360q0 16 48 16q98 2 204 60q25 14 33 14q23 0 23 -170v-756q332 297 331 328q0 12 -79 12h-13q-12 -2 -30 -2h-21q-37 0 -37 17q0 18 64 18h84l75 -2h127q74 0 86.5 -2t12.5 -14q0 -14 -97 -17q-70 -2 -84 -10q-25 -14 -47 -37l-256 -248q285 -311 404 -456 q49 -59 78 -72q19 -9 76 -9q11 0 24 1q18 0 18 -17q0 -14 -75 -14q-59 0 -111 2q-104 4 -143 4q-27 0 -81 -4t-81 -4q-18 0 -19 14q0 16 39 17q98 0 99 32q0 29 -344 414l2 -418q2 -29 50 -28h7l55 2q27 0 27 -17q0 -18 -45 -18q4 0 -10 2h-50q-49 2 -133 2h-159 q-49 0 -50 16q0 10 9.5 12.5t70.5 4.5q49 2 52 22q4 14 4 107v1001q0 162 -2 168q-4 14 -60 15h-20q-14 -2 -33 -3q-23 1 -23 17z" />
<glyph unicode="l" horiz-adv-x="481" d="M16 1360q0 16 52 18q98 6 182 45l43 21l16 6q15 -53 15 -154v-26l-2 -146l2 -1003q0 -61 2 -72.5t14 -15.5q2 -2 76 -4q47 0 47 -15q0 -18 -27 -18h-24q-4 0 -109 4l-63 2q-16 0 -164 -6q-12 -2 -25 -2h-5q-25 0 -26 18q0 14 23 15h53q57 0 58 24q2 12 2 160v1042 q0 68 -4 74q-6 16 -33 16h-17l-57 -2q-29 1 -29 19z" />
<glyph unicode="m" horiz-adv-x="1439" d="M23 811q0 12 9 14t66 6q47 2 118 25t81 39q23 23 33 23t12 -16.5t4 -115.5q82 131 252 132q182 0 221 -138q80 137 256 138q152 0 205 -109q29 -57 29 -191v-505q0 -70 7 -77t64 -11l37 2q23 2 23 -15q0 -16 -35 -16q-4 0 -44 2t-108 2q-6 0 -217 -4q-27 0 -26 14 q0 16 22 17h17l51 2q31 2 36 14t5 86v508q0 119 -32 169t-108 50q-53 0 -99 -31.5t-64 -81.5q-8 -31 -9 -227v-387q0 -68 2 -78q6 -25 37 -24h60q27 0 26 -17q0 -14 -30 -14h-15q-20 4 -139 4q-41 0 -109.5 -2t-82.5 -2h-23q-25 0 -25 16q0 10 12.5 12.5t82.5 2.5 q33 2 34 20l3 29v571q0 119 -30 164t-106 45t-126 -47t-50 -119v-581q0 -61 9.5 -72.5t60.5 -11.5h16q12 2 23 2q23 0 22 -17q0 -14 -26 -14h-21q-37 5 -105 5q-23 0 -48 -1l-201 -4q-29 0 -29 16q0 14 27 15q78 0 90 7t14 25v533q0 154 -6 180.5t-59 26.5h-29 q-18 -2 -39 -2q-26 0 -26 14z" />
<glyph unicode="n" horiz-adv-x="1001" d="M27 813q0 18 43 18q61 2 132.5 22.5t100.5 47.5q18 16 29 17q14 0 14 -39v-99q106 137 275 138q147 0 213 -109q37 -61 36 -234v-466q0 -66 7 -72q12 -12 59 -12q6 0 22 2h15q20 0 20 -15q0 -16 -30 -16h-25q-37 4 -100 4q-201 0 -238 -4h-14q-27 0 -27 14 q0 10 11.5 12.5t78.5 4.5q39 2 45 11t6 66v394q0 223 -16 266q-35 92 -139 92q-102 0 -172 -90q-20 -27 -21 -74l2 -639q0 -25 43 -26l62 -2q20 0 20 -15q0 -14 -24 -14h-33q-45 4 -143 4q-23 0 -98 -2t-87 -2h-12q-31 0 -31 14t37 19h51q31 0 37 14l6 31v446q0 233 -4 258 t-51 25q-14 0 -49 -4h-10q-41 0 -41 14z" />
<glyph unicode="o" horiz-adv-x="983" d="M63 442q0 205 122 340.5t304 135.5q184 0 308.5 -136.5t124.5 -339.5q0 -199 -121 -333t-301 -134q-186 0 -311.5 134t-125.5 333zM250 442q0 -207 68.5 -322.5t191.5 -115.5q94 0 139 72q86 135 86 368q0 225 -69 351q-51 92 -172 92q-115 0 -179.5 -118t-64.5 -327z " />
<glyph unicode="p" horiz-adv-x="1001" d="M-4 829q0 18 45 19h8q108 0 197 53q27 16 41 17q16 0 21 -15.5t7 -93.5q76 109 217 109q178 0 292 -130.5t114 -332.5q0 -205 -115.5 -342.5t-287.5 -137.5q-135 0 -209 99v-477q0 -45 3 -53.5t19 -14.5q31 -6 119 -6q25 0 25 -19q0 -14 -27 -14h-39h-47q-31 2 -53 2 q-12 0 -68 -2h-86h-109q-59 0 -59 14q0 18 25 19h61q59 0 64 26q2 12 2 189v1020q0 54 -49 53h-7q-82 4 -86 4q-18 0 -18 14zM326 709q-2 -36 -2 -104q0 -102 4 -275q2 -145 6 -175t26 -61q59 -84 154 -84q106 0 160 90q82 137 82 353q0 160 -49 272q-66 156 -203 156 q-72 0 -123 -50t-55 -122z" />
<glyph unicode="q" horiz-adv-x="948" d="M61 440q0 205 127 341.5t320 136.5q66 0 141 -25q57 -18 82 -19q49 0 67.5 20.5t26.5 20.5q16 0 17 -34v-1321q0 -33 49 -35q84 -4 84 -21q0 -14 -27 -14q-12 0 -20 2l-246 4q-25 0 -63.5 -2t-53.5 -2h-18q-20 0 -21 14q0 16 37 17q90 2 101 16q8 8 8 142v391 q-88 -96 -219 -97q-164 0 -278 134t-114 331zM248 434q0 -199 61.5 -308.5t171.5 -109.5q57 0 107.5 33t70.5 82q14 35 15 209q0 334 -3 394.5t-24 88.5q-45 61 -145 62q-254 0 -254 -451z" />
<glyph unicode="r" horiz-adv-x="692" d="M12 844q0 14 21 14h14q31 0 61.5 -3t26.5 -3q76 0 168 43l27 12l16 6q8 -49 8 -98v-41q66 143 185 144q66 0 108.5 -40t42.5 -100q0 -47 -28.5 -77.5t-73.5 -30.5q-37 0 -61.5 21.5t-24.5 53.5q0 29 18.5 49.5t18.5 28.5q0 31 -45 31q-57 0 -99 -72q-47 -84 -47 -311 v-405q0 -25 17.5 -31t105.5 -8q23 -4 23 -17q0 -14 -27 -14q-47 0 -88 2t-156 2q-59 0 -85.5 -2t-67.5 -2q-33 0 -33 14t26 15h29q70 0 82 16q4 8 4 76v563q0 113 -33.5 130t-107.5 19q-25 1 -25 15z" />
<glyph unicode="s" horiz-adv-x="741" d="M96 -8q0 10 2 24q6 41 6 121q0 6 -2 49t-2 58v22q0 23 15 23q16 0 18 -23q12 -94 53 -147q82 -106 220 -107q74 0 118.5 43t44.5 115q0 80 -51 127q-29 27 -52.5 38t-137.5 54q-227 86 -228 258q0 115 78 193t193 78q41 0 123 -25q20 -6 36 -6q43 0 54 41q6 20 18 20 q14 0 14 -16q0 -2 -2 -12l-2 -86v-16q0 -49 11 -142v-4q0 -16 -17 -17q-12 0 -31 62q-23 74 -79 119t-129 45q-70 0 -115 -43t-45 -109q0 -102 137 -156q213 -84 270 -139q74 -72 74 -174q0 -119 -87 -202t-208 -83q-70 0 -170 50q-27 14 -47 14q-29 0 -43 -39 q-8 -25 -22 -25q-15 1 -15 17z" />
<glyph unicode="t" horiz-adv-x="581" d="M12 872q0 14 23 17q160 14 250 155q12 18 30 19q14 0 15 -14v-9q-2 -10 -2 -34q0 -86 8 -111q18 -4 61 -4q113 0 150 10q8 2 14 2q16 0 17 -18q0 -31 -166 -31q-29 0 -84 2v-379q0 -287 14 -359.5t94 -72.5q68 0 152 76q8 10 18 10q14 0 15 -10q0 -18 -52 -66 q-88 -80 -209 -80q-113 0 -170 58q-33 33 -32 192v611q-2 20 -23 22h-78q-45 0 -45 14z" />
<glyph unicode="u" horiz-adv-x="1003" d="M10 879q0 14 35 14q37 0 107 -4q35 -2 41 -2q72 0 133 6v-571q0 -158 20 -209q33 -80 133 -80q109 0 160 90q37 66 37 209v317q0 70 -2 105l-4 67q-2 31 -13.5 36t-46.5 5h-15q-71 0 -71 19q0 12 43 12h19q16 -2 108 -2q123 0 152 2v-571q0 -147 6 -186.5t31.5 -45.5 t115.5 -6q25 0 25 -14t-45 -17q-160 -10 -281 -69q-8 -4 -14 -4q-12 0 -12 16l2 115q-94 -135 -264 -136q-152 0 -217 88q-27 37 -32 68t-5 166v469q0 72 -8.5 84t-55.5 14l-26 -2q-56 -3 -56 17z" />
<glyph unicode="v" horiz-adv-x="786" d="M-57 877q0 16 28 16l144 -4q33 0 129 2q104 2 108 2h10q20 0 21 -14q0 -16 -63.5 -16.5t-63.5 -16.5q0 -23 18 -68q33 -82 127 -352q41 -121 68 -184q57 182 102 313q90 266 91 291q0 18 -31 18q-16 0 -27 -2h-18q-27 0 -27 17q0 14 25 14l127 -2l77 2h13q49 0 49 -14 q0 -16 -39 -17q-14 0 -37 2h-12q-37 0 -57 -45l-25 -78l-172 -528q-14 -41 -41 -125q-33 -113 -53 -113q-14 0 -29 39q-10 25 -20 56q-166 449 -168 446q-106 303 -129 330q-18 18 -58 16l-47 -2q-20 1 -20 17z" />
<glyph unicode="w" horiz-adv-x="1226" d="M-59 881q0 14 22 14h17h71q68 -2 148 -2q33 0 67 2h43h25q29 0 28 -16q0 -18 -20 -19l-51 2q-49 2 -49 -20q0 -18 39 -129q68 -193 159 -484q88 287 160 494l33 98q23 78 43 78t43 -72q37 -121 160 -462q16 -45 47 -136l184 619q0 16 -25 16q-8 0 -59 -2q-23 0 -22 17 q0 16 28 16h21h215q25 0 24 -16q0 -16 -30 -17q-23 0 -37 2h-17q-43 0 -82 -121q-23 -78 -43 -155l-63 -205q-35 -106 -102 -340q-18 -70 -35 -70q-14 0 -36 51.5t-110 292.5q-23 63 -67 185q-31 80 -47 133q-80 -225 -207 -637q-8 -25 -25 -25q-16 0 -29 31q-4 14 -24 70 l-49 131q-20 53 -79.5 239.5t-70.5 221.5q-57 164 -84 188q-18 8 -66 8.5t-48 18.5z" />
<glyph unicode="x" horiz-adv-x="862" d="M-33 14q0 16 45 19q70 4 109 49l170 256q14 20 57 84q-35 59 -176 330q-41 80 -62.5 94t-103.5 16q-31 0 -31 15q0 16 29 16l232 -4q35 0 94 2q68 2 96 2q53 0 53 -16t-71 -19q-90 -2 -91 -22q0 -14 39 -84q66 -123 99 -187l8 -16q61 84 123.5 185.5t62.5 117.5 q0 12 -49 10l-43 -2q-14 0 -14 17q0 16 26 16q-2 0 -1.5 -0.5t71.5 -3.5q20 -2 41 -2q112 5 112 6h-1h22q14 2 21 2q25 0 24 -12q0 -10 -11 -15.5t-56 -5.5q-59 0 -78 -16.5t-39 -50.5l-39 -66q-27 -45 -78 -121l-68 -100l35 -59q16 -29 84 -152q33 -57 113 -195 q27 -45 51.5 -58t82.5 -13t58 -17q0 -16 -36 -16h-23q-12 2 -31 2l-202 2q-76 0 -123 -2q-35 -2 -60 -2q-37 0 -37 16q0 12 12.5 14.5t88.5 2.5q57 0 57 18q0 14 -20 49q-49 88 -152 264l-12 21q-211 -301 -211 -334q0 -18 115 -20q20 0 20 -15q0 -18 -35 -18q-12 0 -45 2 t-84 2h-18q-29 0 -54 -2l-40 2q-27 -2 -33 -2q-23 0 -23 16z" />
<glyph unicode="y" horiz-adv-x="821" d="M-55 879q0 16 26 16q23 0 70 -3t72 -3h37q43 2 118 4l105 2q23 0 22 -16q0 -14 -76 -17q-63 -2 -63 -20q0 -16 41 -127q16 -47 35 -99l35 -102q14 -45 75 -205q20 -49 45 -119q197 616 197 648q0 18 -15.5 22t-86.5 4q-20 0 -21 17q0 14 25 14q10 0 16 -2q70 -4 115 -4 h57q37 0 48.5 2t27.5 2q18 0 18 -14t-49 -16.5t-62.5 -8.5t-23.5 -35l-14 -37l-17 -51q-29 -94 -86 -280q-162 -520 -268 -807q-66 -174 -180 -174q-49 0 -81 28.5t-32 73.5q0 39 25.5 63.5t66.5 24.5q55 0 80 -45q18 -35 31 -35q18 0 57 101q57 150 91 268 q-152 397 -259 694q-74 203 -81 205q-12 10 -66.5 10.5t-54.5 20.5z" />
<glyph unicode="z" horiz-adv-x="808" d="M43 10q0 2 6 13q45 80 135 237l357 600q-45 6 -129 6q-131 0 -184.5 -48t-84.5 -191q-6 -25 -26 -25q-16 0 -17 16q0 2 15 89q25 147 41 196q143 -6 542 -6h27q2 -4 2 -10q0 -23 -106 -205q-242 -410 -390 -649q55 -2 134 -2q244 0 299 90q43 70 65 172q6 18 25 18 q14 0 14 -18q0 -10 -8 -45q-39 -166 -47 -250l-289 2q-127 0 -205 -2q-84 -4 -115 -4h-6q-55 0 -55 16z" />
<glyph unicode="{" horiz-adv-x="624" d="M20 561q0 20 46 27q88 14 122 78q31 55 31 186q0 63 -6 140t-6 120q0 102 55 186t139 111q47 14 142 14q43 0 43 -18t-66 -19q-78 0 -110.5 -46t-32.5 -150q0 -41 4 -123t4 -123q0 -211 -127 -315q-57 -47 -125 -60q-10 -2 -10 -8q0 -8 12 -8q49 -2 109 -49 q141 -109 141 -297q0 -45 -4 -133t-4 -133q0 -209 119 -205l49 2q37 2 37 -19q0 -20 -58 -20q-76 0 -129 18q-86 31 -137 111t-51 184q0 45 5 137.5t5 137.5q0 141 -46 191t-105 54q-46 6 -46 29z" />
<glyph unicode="|" horiz-adv-x="1064" d="M473 -354v1773h117v-1773h-117z" />
<glyph unicode="}" horiz-adv-x="624" d="M35 -283q0 18 67 19q80 0 112 46t32 155q0 31 -4 127t-4 112q0 215 124 318q57 47 127 59q10 4 11 8q0 8 -13 8q-49 2 -108 49q-141 111 -141 300q0 45 4 133t4 133q0 209 -121 202l-47 -2q-37 -2 -37 19q0 20 53 20q78 0 133 -18q88 -29 138.5 -108.5t50.5 -188.5 q0 -45 -5 -137t-5 -137q0 -139 46 -189.5t103 -54.5q47 -4 47 -29q0 -20 -45 -26q-84 -12 -121 -78q-31 -55 -30 -187q0 -43 5 -129t5 -129q0 -104 -55.5 -188t-139.5 -111q-45 -14 -141 -14q-45 0 -45 18z" />
<glyph unicode="~" horiz-adv-x="1394" d="M250 1325q127 207 293 207q59 0 192 -47q111 -39 166 -39q117 0 211 115l31 -19q-51 -94 -131 -149.5t-158 -55.5q-41 0 -197 52q-119 39 -184 38q-55 0 -92 -23.5t-100 -98.5z" />
<glyph unicode="&#xa1;" horiz-adv-x="729" d="M248 -399q94 537 88 913q0 45 26 45q27 0 27 -51q0 -371 90 -909q-72 -141 -114 -142q-29 0 -46.5 19.5t-60.5 103.5zM252 811q0 45 31.5 77t78.5 32q45 0 77 -33t32 -80q0 -45 -31.5 -76t-79.5 -31q-45 0 -76.5 32t-31.5 79z" />
<glyph unicode="&#xa2;" horiz-adv-x="1042" d="M113 14q0 8 20 41l170 264q-141 158 -141 353q0 201 128 340t312 139q121 0 215 -55l111 166q14 20 22 36q12 25 31 25q25 0 25 -23q0 -6 -35 -61l-113 -178q51 -35 51 -103q0 -39 -24.5 -64.5t-59.5 -25.5q-45 0 -71 39l-334 -514q76 -131 209 -131q63 0 124.5 38 t96.5 97q12 23 29 23q18 0 18 -14q0 -29 -59 -93q-98 -106 -234 -106q-143 0 -256 84l-172 -266q-25 -37 -37 -37q-26 -1 -26 26zM360 723q0 -184 35 -274l371 585q-37 90 -148 90q-123 0 -190.5 -104t-67.5 -297z" />
<glyph unicode="&#xa3;" horiz-adv-x="1056" d="M27 43q0 14 22 20q252 70 252 345q0 72 -25 151h-190q-39 0 -39 25q0 27 43 26h168q-57 217 -57 328q0 197 109.5 315.5t289.5 118.5q152 0 247 -81t95 -210q0 -70 -39 -113.5t-98 -43.5q-115 0 -115 106q0 55 45 86q27 18 99 25q29 0 28 24q0 37 -43 84q-57 63 -170 64 q-119 0 -188.5 -87t-69.5 -233q0 -143 68 -383h336q49 0 49 -22q0 -29 -51 -29h-326v-24q0 -125 -72 -220q-72 -86 -145 -172q-2 -4 -2 -6q0 -6 6 -6q8 0 25 12q98 72 215 72q80 0 192 -47q127 -53 172 -53q68 0 94 90q6 25 11 90q2 41 26 41q27 0 27 -45q0 -141 -43 -215 q-27 -47 -81 -79t-110 -32q-82 0 -258 76q-137 59 -231 59q-61 0 -103 -26q-33 -20 -75 -76q-18 -23 -33 -23q-14 0 -34.5 25t-20.5 43z" />
<glyph unicode="&#xa4;" horiz-adv-x="2113" d="M182 799q6 16 6 22q0 10 -2 19v14q0 29 33 39q10 0 25 2h26q45 0 56 -41q10 -2 20 -2q25 0 72 14.5t71 14.5q4 0 37 -4q29 10 33 51t23 41q12 0 34 -15q31 -6 101 -34q59 -25 100 -27q12 -12 27 -21q37 -20 37 -38q0 -6 -4 -23q-121 -76 -195 -86q-12 -16 -43 -24.5 t-45 -22.5q-61 8 -55 61q0 16 -15.5 37t-27.5 21q-6 0 -17 -9q-27 -23 -57 -22q-14 0 -43 7t-43 7t-41 -14q-53 -4 -51 -4q-42 0 -62 37zM381 1366q0 31 25 66q29 18 55 18q37 0 65 -37v-12q0 -23 19 -35q49 -6 90 -70.5t70 -64.5q27 0 63 49q37 -8 49 -68q4 -25 14.5 -44 t32.5 -54q66 -106 66 -182q-33 -4 -41 -4q-51 0 -158 67q-53 35 -108 58q-10 20 -11 32q0 14 9.5 42t9.5 44q0 35 -51 50q-14 4 -48 34.5t-65 30.5q-14 16 -41 27q-45 16 -45 53zM438 281q0 31 39 77q18 10 58 15q14 2 38 6q8 10 33 47q35 61 72 74q-27 8 -37 47 q-4 27 -18 39q57 43 211 125q43 25 135 51q0 -8 12 -19q-33 -57 -63 -141q-45 -119 -89 -178h-6l-16 2q-53 6 -76 35q-14 -14 -31 -43q-33 -57 -63 -58q-8 0 -14 2q-10 -16 -25 -61q-29 -94 -88 -94q-23 0 -47.5 25.5t-24.5 48.5zM883 1329q2 29 37 39q10 -2 24 -2 q39 0 53 35v29q0 18 2 38v37q0 43 -14 78q6 123 90 123q53 0 74 -45q10 -10 10 -21q0 -12 -5 -31l-5 -20q-29 -29 -35 -48t-6 -79.5t-21 -101.5q6 -31 43 -35t50 -18q-41 -180 -88 -260q-14 -25 -17 -64q-2 -66 -43 -70q-35 47 -48 84t-52 195q-22 94 -49 137zM922 406 q0 10 8 28q29 37 45 119q16 74 57 111q47 -4 78 -80q12 -29 43 -95q35 -72 39 -110q-8 -4 -33 -14q-51 -18 -65 -50q2 -20 6 -92q2 -121 41 -180q0 -18 -25 -31q-14 -4 -22 -12h-31q-72 0 -94 43q4 23 8 46.5t20 37.5q6 41 7 57q0 16 -3 35v35q0 39 15 78q-12 31 -53 43.5 t-41 30.5zM1106 717q0 27 35 26q63 0 145 -59q68 -49 133 -49l11 -6l30 -17q14 -10 15 -24q0 -14 -22.5 -40t-22.5 -38l2 -14q14 -12 49 -43q66 -61 112 -82q27 -12 47 -45q14 -20 27 -37q-4 -8 -10 -19q-29 -59 -62 -59q-4 0 -14 2l-22 2q-74 6 -74 47q0 8 2 23.5t2 23.5 q0 35 -39 43q-29 6 -66 66q-31 49 -53 49q-20 0 -49 -55q-8 -4 -14 -4t-11 4l-28 49q-41 68 -58.5 115t-37.5 81q-27 48 -27 60zM1137 862q14 14 51 23l57 12l115 47l139 53q35 -4 55 -59q2 -6 13 -20l4 -5q41 -4 43 -4q37 0 108.5 17.5t108.5 17.5q74 0 74 -67v-21l-2 -12 v-27q-2 -4 -9 -14l-36 -21l-15 -8q-39 2 -51 5t-41 20l-180 12q-33 -12 -41 -72q-8 -51 -29 -51q-16 0 -45 19q-78 31 -235 86q-6 8 -31 18q-49 18 -53 51zM1153 938q8 53 45 133q12 25 35 76q20 20 37 72q16 45 43 67q6 2 12 2q14 0 36.5 -14t35.5 -14q6 0 22 10 q20 33 73.5 81t53.5 95v16q33 33 74 33q33 0 54.5 -19.5t21.5 -48.5q0 -41 -45 -102q-16 -8 -47 -8q-41 0 -52.5 -7t-11.5 -34q-2 -33 -52 -57.5t-50 -42.5q0 -14 24 -46v-24q-29 -18 -88 -62q-131 -96 -221 -106z" />
<glyph unicode="&#xa5;" horiz-adv-x="1144" d="M-41 1335q0 16 37 17q18 0 156 -4q68 -2 94 -2q53 0 237 2q14 2 33 2q37 0 37 -19q0 -18 -35 -18h-43q-113 0 -113 -41q0 -33 119 -264l174 -334l168 336q115 236 115 266q0 27 -53.5 34t-75.5 5q-43 -2 -43 18q0 16 90 17h59q195 0 234 -2t39 -17q0 -14 -29 -16 q-106 -6 -139 -37q-14 -12 -41 -68q-4 -8 -57 -120l-72 -152q-29 -63 -74 -152h219q37 0 37 -26q0 -23 -53 -23h-227l-15 -30q-39 -82 -43 -97q-8 -27 -8 -84v-12h309q37 0 37 -27q0 -23 -53 -22h-293v-338q0 -59 16.5 -72.5t98.5 -17.5q74 -4 73 -21q0 -16 -26 -16h-21 l-129 4l-161 2q18 0 -179 -4q-12 -2 -28 -2q-27 0 -27 18q0 16 41 19q111 4 131.5 16.5t20.5 38.5l2 55v318h-346q-41 0 -41 24q0 25 57 25h330v45q-35 82 -86 178h-260q-41 0 -41 25t57 24h219q-76 160 -125 252q-31 57 -65 131q-55 115 -68 125q-20 18 -139 21 q-31 0 -31 20z" />
<glyph unicode="&#xa6;" horiz-adv-x="1064" d="M473 326h117v-680h-117v680zM473 707v712h117v-712h-117z" />
<glyph unicode="&#xa7;" d="M215 664q0 137 119 280q-70 92 -70 195q0 139 89 224t235 85q119 0 193.5 -62.5t74.5 -162.5q0 -125 -113 -125q-106 0 -106 92q0 47 26.5 65.5t104.5 22.5q18 0 18 16q0 45 -59 81t-133 36q-86 0 -137 -51t-51 -137q0 -82 47 -146.5t174 -156.5q143 -104 190 -181 q61 -96 62 -180q0 -150 -115 -274q84 -111 84 -234q0 -152 -99.5 -254t-246.5 -102q-121 0 -199 66.5t-78 166.5q0 68 37 108t98 40q45 0 79 -31t34 -72q0 -80 -141 -88q-45 -2 -45 -20q0 -51 66.5 -93t148.5 -42q199 0 198 227q0 102 -43 172t-159 156q-176 131 -222 188 q-61 78 -61 191zM303 766q0 -90 105 -184q47 -43 221 -181q25 -18 106 -90q68 78 68 138q0 117 -203 270q-39 31 -117 90q-6 4 -32 27l-91 79l-8 -10q-49 -61 -49 -139z" />
<glyph unicode="&#xa8;" horiz-adv-x="1026" d="M236 1147q0 43 28.5 71.5t71.5 28.5q39 0 68.5 -30.5t29.5 -71.5q0 -39 -29.5 -67.5t-70.5 -28.5t-69.5 28.5t-28.5 69.5zM590 1147q0 41 29.5 70.5t72.5 29.5q41 0 67.5 -29.5t26.5 -74.5q0 -39 -27.5 -65.5t-68.5 -26.5q-43 0 -71.5 27.5t-28.5 68.5z" />
<glyph unicode="&#xa9;" horiz-adv-x="1644" d="M88 715q0 303 218 516t530 213q295 0 509 -217t214 -516q0 -305 -215.5 -520.5t-520.5 -215.5q-307 0 -521 215.5t-214 524.5zM164 711q0 -279 192.5 -476.5t466.5 -197.5t467 197.5t193 480.5q0 279 -195.5 473t-474.5 194q-264 0 -456.5 -199.5t-192.5 -471.5zM416 717 q0 190 118.5 313t305.5 123q109 0 207 -61q29 -18 38 -19q10 0 19 21q16 45 33 45q14 0 14 -15q0 -10 -2 -20q-14 -74 -14 -223q0 -29 -21 -29q-16 0 -22 27q-27 131 -80.5 184t-157.5 53q-123 0 -192.5 -107.5t-69.5 -295.5t76.5 -296t210.5 -108q205 0 247 246q6 33 23 33 q18 0 18 -25q0 -8 -2 -33q-6 -86 -6 -135q0 -10 2 -30.5t2 -49.5v-12q0 -23 -16 -22q-12 0 -43 57q-6 14 -12 27q-76 -92 -220 -93q-199 0 -327.5 126t-128.5 319z" />
<glyph unicode="&#xaa;" horiz-adv-x="737" d="M150 674q0 166 286 200v25q0 102 -10 137q-16 59 -92 60q-51 0 -76 -27t-25 -43q0 -8 11 -8q55 -6 55 -53q0 -59 -68 -60q-80 0 -79 74q0 66 57 106.5t149 40.5q117 0 166 -51q29 -31 29 -137v-225q0 -74 5 -88.5t28 -14.5q20 0 51 25q14 12 27 12q14 0 14 -12 q0 -23 -49 -47.5t-97 -24.5q-92 0 -92 84q-72 -88 -151 -88q-61 0 -100 32t-39 83zM268 709q0 -82 74 -82q94 0 94 129v86q-168 -39 -168 -133z" />
<glyph unicode="&#xab;" horiz-adv-x="854" d="M100 434q0 51 3 63.5t24 26.5q176 168 268 281q20 25 33 24q16 0 16 -16q0 -39 -206 -350q68 -106 202 -316q8 -12 9 -22q0 -14 -13 -14q-10 0 -20 12q-193 188 -301 285q-15 12 -15 26zM432 434q0 51 3 62.5t24 29.5q158 139 268 279q18 25 33 24q16 0 16 -18 q0 -41 -205 -348q25 -37 172 -268l29 -45q8 -12 8 -25q0 -12 -12 -12q-10 0 -20 12q-180 174 -302 283q-14 12 -14 26z" />
<glyph unicode="&#xac;" d="M121 379v74h850v-453h-131v379h-719z" />
<glyph unicode="&#xad;" horiz-adv-x="624" d="M31 406v106h563v-106h-563z" />
<glyph unicode="&#xae;" horiz-adv-x="1644" d="M88 715q0 303 218 516t530 213q295 0 509 -217t214 -516q0 -305 -215.5 -520.5t-520.5 -215.5q-307 0 -521 215.5t-214 524.5zM164 711q0 -279 192.5 -476.5t466.5 -197.5t467 197.5t193 480.5q0 279 -195.5 473t-474.5 194q-264 0 -456.5 -199.5t-192.5 -471.5zM459 309 q0 16 45 16.5t54 7.5t9 48v668q0 45 -8 54t-49 9h-10q-6 -2 -15 -2q-27 0 -26 18q0 18 26 19h17q25 -4 162 -4h77q16 0 41 2h31q125 0 198.5 -52.5t73.5 -140.5q0 -106 -104 -161q-59 -33 -168 -41q-10 0 -10 -7q2 -4 10 -4q131 -12 187.5 -82.5t72.5 -246.5q10 -96 62 -97 q10 0 10 4q0 2 -2 5q-4 12 -4 16q0 35 35 35q39 0 38 -37q0 -57 -98 -57q-100 0 -164 79q-25 33 -32 68q-8 29 -23 162q-8 80 -55 110q-37 25 -125 29v-332q0 -57 12 -61q20 -8 78 -8q27 0 26 -17q0 -16 -32 -16h-15q-20 2 -133 2h-39q-35 -2 -65 -2h-49q-39 0 -39 16z M715 764q211 0 211 180q0 164 -150 164q-45 0 -53 -11.5t-8 -31.5v-301z" />
<glyph unicode="&#xaf;" horiz-adv-x="1026" d="M270 1098v100h486v-100h-486z" />
<glyph unicode="&#x2c9;" horiz-adv-x="1026" d="M270 1098v100h486v-100h-486z" />
<glyph unicode="&#xb0;" d="M295 1194q0 106 72.5 178t179.5 72q106 0 179 -72t73 -178q0 -104 -74 -175t-184 -71q-100 0 -173 73t-73 173zM391 1194q0 -72 46 -120t114 -48t112 48t44 124q0 72 -46.5 120t-115.5 48q-63 0 -108.5 -50t-45.5 -122z" />
<glyph unicode="&#xb1;" d="M121 25v73h850v-73h-850zM121 651v74h389v379h74v-379h387v-74h-387v-381h-74v381h-389z" />
<glyph unicode="&#xb2;" horiz-adv-x="724" d="M41 584q0 14 72 67q201 152 272.5 257.5t71.5 252.5q0 227 -160 228q-57 0 -99 -30t-42 -71q0 -16 22 -16q90 0 90 -80q0 -74 -80 -74q-106 0 -106 111q0 92 69.5 148.5t184.5 56.5q125 0 200.5 -75t75.5 -196q0 -133 -91 -242.5t-310 -242.5h82q55 2 113 2 q117 0 144.5 4t43.5 21q8 12 24 96q6 27 27 26q20 0 21 -20q0 -2 -3.5 -18.5t-7.5 -49.5l-10 -92l-4 -61l-2 -21q-190 6 -242 6l-334 -4q-22 1 -22 17z" />
<glyph unicode="&#xb3;" horiz-adv-x="724" d="M76 692q0 88 94 88q84 0 84 -71q0 -49 -59 -72q-14 -6 -15 -12q0 -35 101 -35q94 0 151 61.5t57 157.5q0 92 -47 145.5t-129 53.5q-18 0 -39 -2h-8q-29 0 -28 16q0 14 41 20q180 27 180 185q0 76 -40 120t-108 44q-47 0 -84 -18.5t-37 -41.5q0 -14 35 -22q53 -12 54 -62 q0 -68 -70 -67q-100 0 -100 94q0 72 65.5 116t171.5 44q117 0 188.5 -56.5t71.5 -146.5q0 -168 -227 -191v-8q125 -10 193.5 -65.5t68.5 -155.5q0 -109 -97.5 -182.5t-242.5 -73.5q-102 0 -163.5 37t-61.5 100z" />
<glyph unicode="&#xb4;" horiz-adv-x="1026" d="M436 1044q0 4 4 13q23 55 68 160l65 143h68h29q27 -2 71 -2h37l-186 -195q-123 -129 -143 -129q-13 0 -13 10z" />
<glyph unicode="&#xb5;" horiz-adv-x="1003" d="M10 879q0 14 35 14q37 0 107 -4q35 -2 41 -2q72 0 133 6v-571q0 -158 20 -209q33 -80 133 -80q109 0 160 90q37 66 37 209v317q0 70 -2 105l-4 67q-2 31 -13.5 36t-46.5 5q-86 -2 -86 19q0 12 43 12h19q16 -2 108 -2q123 0 152 2v-571q0 -147 6 -186.5t31.5 -45.5 t115.5 -6q25 0 25 -14t-45 -17q-160 -10 -281 -69q-8 -4 -14 -4q-12 0 -12 16l2 115q-94 -135 -260 -136q-117 0 -172 78q6 -45 14 -137q2 -29 12 -106l17 -105q4 -27 4 -51q0 -47 -35 -103.5t-64 -56.5q-33 0 -65.5 56.5t-32.5 109.5q0 12 23 168q41 283 41 469v469 q0 72 -8.5 84t-55.5 14l-26 -2q-56 -3 -56 17z" />
<glyph unicode="&#x3bc;" horiz-adv-x="1003" d="M10 879q0 14 35 14q37 0 107 -4q35 -2 41 -2q72 0 133 6v-571q0 -158 20 -209q33 -80 133 -80q109 0 160 90q37 66 37 209v317q0 70 -2 105l-4 67q-2 31 -13.5 36t-46.5 5q-86 -2 -86 19q0 12 43 12h19q16 -2 108 -2q123 0 152 2v-571q0 -147 6 -186.5t31.5 -45.5 t115.5 -6q25 0 25 -14t-45 -17q-160 -10 -281 -69q-8 -4 -14 -4q-12 0 -12 16l2 115q-94 -135 -260 -136q-117 0 -172 78q6 -45 14 -137q2 -29 12 -106l17 -105q4 -27 4 -51q0 -47 -35 -103.5t-64 -56.5q-33 0 -65.5 56.5t-32.5 109.5q0 12 23 168q41 283 41 469v469 q0 72 -8.5 84t-55.5 14l-26 -2q-56 -3 -56 17z" />
<glyph unicode="&#xb6;" d="M123 1104q0 217 178 282q98 37 311 37h396q47 0 47 -20q0 -14 -56 -17q-84 -2 -105.5 -8t-28.5 -21.5t-7 -76.5v-842q0 -238 -6 -297q-18 -174 -96 -274q-139 -182 -357 -182q-115 0 -189.5 52t-74.5 132q0 53 36 89t91 36q109 0 109 -96q0 -63 -101 -95q-27 -8 -26 -22 q0 -23 48 -41.5t103 -18.5q123 0 174 97q43 82 43 307v633q-215 2 -329 73q-160 99 -160 273zM575 -227l11 -13q141 92 184 240q27 92 31 328q0 -37 0 344v710h-133v-1042q0 -260 -4 -301q-15 -205 -89 -266z" />
<glyph unicode="&#xb7;" horiz-adv-x="530" d="M154 467q0 45 32.5 76.5t79.5 31.5q45 0 77 -31.5t32 -78.5q0 -45 -32 -78t-79 -33t-78.5 33t-31.5 80z" />
<glyph unicode="&#xb8;" horiz-adv-x="1026" d="M373 -311q0 12 14 12q8 0 31 -16q27 -23 67 -23q41 0 73 45t32 105q0 98 -76 98q-18 0 -29 -2v100h43v-71q82 0 136.5 -44.5t54.5 -109.5q0 -70 -56.5 -119t-138.5 -49q-45 0 -98 25.5t-53 48.5z" />
<glyph unicode="&#xb9;" horiz-adv-x="724" d="M164 1313q0 12 24 16q125 16 222 101q14 12 22 12q14 0 16.5 -8.5t2.5 -55.5v-757q2 -18 24 -19q100 0 100 -18q0 -16 -36 -17h-17q-16 0 -43 2h-35h-47h-69q-45 -2 -68 -2h-39q-41 0 -41 19q0 16 27 16h61q33 0 35 14q0 -4 2 15v59v567q0 47 -10 48q-39 -6 -84 -7h-21 q-26 1 -26 15z" />
<glyph unicode="&#xba;" horiz-adv-x="737" d="M88 840q0 123 80 204.5t199 81.5q121 0 201.5 -81.5t80.5 -202.5t-78.5 -202t-197.5 -81q-121 0 -203 81t-82 200zM225 842q0 -254 154 -254q133 0 133 252q0 256 -143 256q-66 0 -105 -67.5t-39 -186.5z" />
<glyph unicode="&#xbb;" horiz-adv-x="854" d="M76 815q0 12 12 12q10 0 21 -12q176 -172 299 -283q14 -12 14 -26q0 -51 -3 -63.5t-24 -28.5q-152 -133 -268 -279q-20 -25 -33 -24q-16 0 -16 18q0 37 207 348q-43 63 -201 316q-8 16 -8 22zM408 815q0 12 12 12q10 0 20 -12q188 -184 301 -283q14 -12 15 -26 q0 -51 -3 -62.5t-24 -29.5q-168 -150 -268 -279q-18 -25 -33 -24q-16 0 -16 16q0 41 206 350q-125 182 -176 268q-8 16 -26 48q-8 16 -8 22z" />
<glyph unicode="&#xbc;" horiz-adv-x="1726" d="M139 1313q0 12 25 16q125 16 221 101q14 12 23 12q14 0 16 -8.5t2 -55.5v-757q2 -18 25 -19q100 0 100 -18q0 -16 -37 -17h-16q-16 0 -43 2h-35h-47h-70q-45 -2 -67 -2h-39q-41 0 -41 19q0 16 26 16h62q33 0 35 14q0 -4 2 15v59v567q0 47 -11 48q-39 -6 -84 -7h-20 q-27 1 -27 15zM436 0l774 1419h80l-774 -1419h-80zM971 252q0 8 192 252q82 104 150 196q45 61 86 115q37 47 51 47q23 0 23 -28v-564q16 0 57 2q25 0 29 9.5t4 61.5t22 52q25 0 23 -28l-2 -45q-4 -104 6 -164v-17q0 -20 -19 -20q-16 0 -19 9t-9 67q-2 31 -21 32 q-27 4 -71 4v-143q0 -37 3 -45t19 -10q-12 0 82 -2q27 0 27 -17q0 -16 -62 -16h-135q-39 0 -82 -2h-72q-16 -2 -30 -2q-35 0 -35 18q0 20 49 18.5t78 4.5q14 4 14 51v141h-102q-170 0 -213 4.5t-43 18.5zM1044 272q59 -2 150 -2h135v82q0 61 2 111.5t6 204.5 q-90 -131 -282 -383z" />
<glyph unicode="&#xbd;" horiz-adv-x="1726" d="M127 1313q0 12 25 16q125 16 221 101q14 12 22 12q14 0 16.5 -8.5t2.5 -55.5v-757q2 -18 24 -19q100 0 101 -18q0 -16 -37 -17h-17q-16 0 -43 2h-34h-48h-69q-45 -2 -68 -2h-39q-41 0 -41 19q0 16 27 16h61q33 0 35 14q0 -4 2 15v59v567q0 47 -10 48q-39 -6 -84 -7h-20 q-27 1 -27 15zM375 0l774 1419h80l-774 -1419h-80zM1006 14q0 12 26 33q190 147 236 195q154 158 153 350q0 227 -159 227q-59 0 -100.5 -29.5t-41.5 -70.5q0 -16 23 -17q90 0 90 -79q0 -74 -80 -74q-106 0 -106 110q0 92 69.5 148.5t183.5 56.5q125 0 201 -74.5t76 -195.5 q0 -133 -89 -240.5t-312 -244.5l73 2h121q117 0 144.5 4t44.5 20q6 8 24 96q6 27 27 27q20 0 20 -20q0 -8 -10 -68q-6 -41 -10 -90l-4 -64l-2 -20q-154 8 -244 6l-332 -4q-22 0 -22 16z" />
<glyph unicode="&#xbe;" horiz-adv-x="1726" d="M113 692q0 88 94 88q84 0 84 -71q0 -49 -60 -72q-14 -6 -14 -12q0 -35 100 -35q94 0 151.5 61.5t57.5 157.5q0 92 -47 145.5t-129 53.5q-18 0 -39 -2h-8q-29 0 -29 16q0 14 41 20q180 27 181 185q0 76 -40 120t-108 44q-47 0 -84 -18.5t-37 -41.5q0 -14 35 -22 q53 -12 53 -62q0 -68 -69 -67q-100 0 -101 94q0 72 65.5 116t172.5 44q117 0 188.5 -56.5t71.5 -146.5q0 -168 -227 -191v-8q125 -10 193.5 -65.5t68.5 -155.5q0 -109 -97.5 -182.5t-242.5 -73.5q-102 0 -163.5 37t-61.5 100zM498 0l774 1419h80l-774 -1419h-80zM995 252 q0 6 195 252q41 51 164 219q102 139 121 139q23 0 22 -37v-555q23 2 56.5 2t33.5 49.5t4 61.5t19 12q25 0 22 -28l-2 -52q-2 -70 6 -157v-15q0 -23 -18 -22q-23 0 -25 39q-4 59 -12 66t-84 7v-143q0 -37 3 -44t20 -11q-10 0 82 -2q27 0 26 -19q0 -14 -61 -14h-135 q-39 0 -82 -2h-72q-16 -2 -31 -2q-35 0 -35 18q0 20 49.5 18.5t77.5 4.5q14 4 15 51v141h-103q-170 0 -213 4.5t-43 18.5zM1069 272q59 -2 150 -2h135v82q0 61 2 111.5t6 204.5q-68 -90 -150 -207q-18 -27 -59 -82z" />
<glyph unicode="&#xbf;" horiz-adv-x="845" d="M100 -225q0 106 56 200q37 63 204 209q150 129 150 228q0 31 -23 110q-2 8 -2 21q0 16 17 16q23 0 43 -59.5t20 -122.5q0 -84 -32.5 -154.5t-120.5 -183.5q-129 -164 -129 -293q0 -111 59 -176.5t160 -65.5q96 0 159.5 67t63.5 167q0 23 -4 24q-4 -2 -14 -20 q-23 -41 -78 -41q-92 0 -92 96t106 97q139 0 139 -154q0 -125 -92 -205t-235 -80q-160 0 -257.5 88.5t-97.5 231.5zM389 811q0 47 33 79t80 32q45 0 76.5 -33t31.5 -80q0 -45 -32.5 -77t-77.5 -32q-47 0 -79 32t-32 79z" />
<glyph unicode="&#xc0;" horiz-adv-x="1232" d="M-49 18q0 18 64.5 20.5t93 20t45.5 66.5q264 754 430 1210q4 25 16 56l10 36q6 23 17 23q6 0 10 -12q27 -80 121 -334q74 -199 366 -998q16 -45 42 -57t106 -14q53 -2 53 -21q0 -18 -31 -18q-20 0 -37 2l-260 4l-260 -4q-14 -2 -30 -2q-41 0 -41 20q0 23 55 23 q180 2 180 37q0 2 -4 16l-16 55l-11 29q-18 63 -90 281h-438q-123 -328 -123 -377q0 -29 25 -35q6 -2 102 -8q59 -2 60 -21q0 -20 -54 -20q-94 0 -219 8q-31 2 -63 2q-33 0 -64 -4q-16 -2 -26 -2q-29 0 -29 18zM342 1876l35 2l59 2h43q37 0 66 -2l84 -182q8 -16 22 -54 l17 -36l12 -29q4 -8 4 -12q0 -10 -12 -11q-18 0 -144 129zM354 504h414q-33 92 -109 305l-98 281q-86 -226 -207 -586z" />
<glyph unicode="&#xc1;" horiz-adv-x="1232" d="M-49 18q0 18 64.5 20.5t93 20t45.5 66.5q264 754 430 1210q4 25 16 56l10 36q6 23 17 23q6 0 10 -12q27 -80 121 -334q74 -199 366 -998q16 -45 42 -57t106 -14q53 -2 53 -21q0 -18 -31 -18q-20 0 -37 2l-260 4l-260 -4q-14 -2 -30 -2q-41 0 -41 20q0 23 55 23 q180 2 180 37q0 2 -4 16l-16 55l-11 29q-18 63 -90 281h-438q-123 -328 -123 -377q0 -29 25 -35q6 -2 102 -8q59 -2 60 -21q0 -20 -54 -20q-94 0 -219 8q-31 2 -63 2q-33 0 -64 -4q-16 -2 -26 -2q-29 0 -29 18zM354 504h414q-33 92 -109 305l-98 281q-86 -226 -207 -586z M559 1565q0 4 4 12q23 55 68 160l65 141q31 2 68 2q63 0 100 -2l37 -2l-186 -193q-125 -129 -144 -129q-12 1 -12 11z" />
<glyph unicode="&#xc2;" horiz-adv-x="1232" d="M-49 18q0 18 64.5 20.5t93 20t45.5 66.5q264 754 430 1210q4 25 16 56l10 36q6 23 17 23q6 0 10 -12q27 -80 121 -334q74 -199 366 -998q16 -45 42 -57t106 -14q53 -2 53 -21q0 -18 -31 -18q-20 0 -37 2l-260 4l-260 -4q-14 -2 -30 -2q-41 0 -41 20q0 23 55 23 q180 2 180 37q0 2 -4 16l-16 55l-11 29q-18 63 -90 281h-438q-123 -328 -123 -377q0 -29 25 -35q6 -2 102 -8q59 -2 60 -21q0 -20 -54 -20q-94 0 -219 8q-31 2 -63 2q-33 0 -64 -4q-16 -2 -26 -2q-29 0 -29 18zM354 504h414q-33 92 -109 305l-98 281q-86 -226 -207 -586z M397 1552q0 6 13 19q92 90 174 266q33 72 51 72q16 0 55 -74q80 -152 193 -291h-135q-72 68 -150 225q-45 -92 -99.5 -161.5t-82.5 -69.5q-19 0 -19 14z" />
<glyph unicode="&#xc3;" horiz-adv-x="1232" d="M-49 18q0 18 64.5 20.5t93 20t45.5 66.5q264 754 430 1210q4 25 16 56l10 36q6 23 17 23q6 0 10 -12q27 -80 121 -334q74 -199 366 -998q16 -45 42 -57t106 -14q53 -2 53 -21q0 -18 -31 -18q-20 0 -37 2l-260 4l-260 -4q-14 -2 -30 -2q-41 0 -41 20q0 23 55 23 q180 2 180 37q0 2 -4 16l-16 55l-11 29q-18 63 -90 281h-438q-123 -328 -123 -377q0 -29 25 -35q6 -2 102 -8q59 -2 60 -21q0 -20 -54 -20q-94 0 -219 8q-31 2 -63 2q-33 0 -64 -4q-16 -2 -26 -2q-29 0 -29 18zM340 1657q0 55 44 95t105 40q70 0 191 -63.5t149 -63.5 q25 0 45 72q10 35 29 35q18 0 19 -17q0 -49 -42 -116.5t-122 -67.5q-49 0 -187 71q-125 66 -149 66q-41 0 -41 -43q0 -23 31 -55q10 -10 10 -17q0 -16 -21 -16q-20 0 -40.5 26.5t-20.5 53.5zM354 504h414q-33 92 -109 305l-98 281q-86 -226 -207 -586z" />
<glyph unicode="&#xc4;" horiz-adv-x="1232" d="M-49 18q0 18 64.5 20.5t93 20t45.5 66.5q264 754 430 1210q4 25 16 56l10 36q6 23 17 23q6 0 10 -12q27 -80 121 -334q74 -199 366 -998q16 -45 42 -57t106 -14q53 -2 53 -21q0 -18 -31 -18q-20 0 -37 2l-260 4l-260 -4q-14 -2 -30 -2q-41 0 -41 20q0 23 55 23 q180 2 180 37q0 2 -4 16l-16 55l-11 29q-18 63 -90 281h-438q-123 -328 -123 -377q0 -29 25 -35q6 -2 102 -8q59 -2 60 -21q0 -20 -54 -20q-94 0 -219 8q-31 2 -63 2q-33 0 -64 -4q-16 -2 -26 -2q-29 0 -29 18zM350 1667q0 43 29 71.5t70 28.5t70.5 -30.5t29.5 -71.5 q0 -39 -30 -67.5t-70 -28.5q-41 0 -70 28.5t-29 69.5zM354 504h414q-33 92 -109 305l-98 281q-86 -226 -207 -586zM705 1665q0 41 29.5 70.5t72.5 29.5q41 0 67.5 -29.5t26.5 -74.5q0 -39 -27.5 -65.5t-68.5 -26.5q-43 0 -71.5 27.5t-28.5 68.5z" />
<glyph unicode="&#xc5;" horiz-adv-x="1232" d="M-49 18q0 18 64.5 20.5t93 20t45.5 66.5q264 754 430 1210q4 25 16 56l10 36q6 23 17 23q6 0 10 -12q27 -80 121 -334q74 -199 366 -998q16 -45 42 -57t106 -14q53 -2 53 -21q0 -18 -31 -18q-20 0 -37 2l-260 4l-260 -4q-14 -2 -30 -2q-41 0 -41 20q0 23 55 23 q180 2 180 37q0 2 -4 16l-16 55l-11 29q-18 63 -90 281h-438q-123 -328 -123 -377q0 -29 25 -35q6 -2 102 -8q59 -2 60 -21q0 -20 -54 -20q-94 0 -219 8q-31 2 -63 2q-33 0 -64 -4q-16 -2 -26 -2q-29 0 -29 18zM354 504h414q-33 92 -109 305l-98 281q-86 -226 -207 -586z M449 1739q0 76 52 127t128 51t128 -51t52 -125q0 -76 -52 -126t-132 -50q-72 0 -124 51t-52 123zM520 1739q0 -49 32 -83t79 -34t77.5 34t30.5 87q0 51 -31.5 84t-80.5 33q-45 0 -76 -35t-31 -86z" />
<glyph unicode="&#xc6;" horiz-adv-x="1912" d="M-55 20q0 16 53 21q123 8 164 74q8 8 67 108l555 942q80 133 154 262h37l65 -2q66 -2 131 -2q47 0 160 2q102 2 160 2l213 -2q35 0 100 7q0 -8 21 -256l6 -76q2 -10 2 -25q0 -23 -18 -22q-14 0 -19 22q-29 182 -105.5 245.5t-373.5 63.5q-121 0 -174 -2v-608h88 q229 0 274 62q29 39 35 141q6 78 25 78q23 0 22 -35q0 -12 -4 -72q-6 -90 -6 -145q0 -201 8 -303q2 -27 2 -35q0 -27 -20 -27q-14 0 -18.5 9.5t-10.5 58.5q-16 125 -36.5 159.5t-92.5 57.5q-31 10 -266 12v-694q334 0 434 12q137 18 184 78q37 49 56 195q6 49 32 49 q20 0 21 -53q0 -10 -2 -50q-4 -76 -4 -200v-84q-244 10 -781 10q-59 0 -153 -2h-103h-14q-41 0 -41 20t55 21q78 0 94.5 18.5t16.5 106.5v295h-504q-211 -332 -211 -383q0 -20 19.5 -25.5t128.5 -13.5q39 -2 39 -19q0 -18 -35 -18h-21h-112q-82 2 -181 2q-80 0 -102 6 q-14 4 -14 14zM467 504h471v813q-51 -92 -143 -246q-70 -117 -183 -315q-59 -105 -145 -252z" />
<glyph unicode="&#xc7;" horiz-adv-x="1337" d="M88 715q0 322 181.5 525.5t467.5 203.5q102 0 166 -17.5t154 -70.5q45 -27 67 -27q18 0 35 33q27 57 43 57t17 -16q0 -8 -5 -27q-31 -135 -22 -334l2 -47q2 -39 -23 -39q-20 0 -26 39q-33 195 -109 289q-96 119 -282 119q-166 0 -262 -111q-174 -199 -175 -581 q0 -338 146 -531q125 -164 330 -164q106 0 194 52.5t135 142.5q53 100 76 227q8 49 27 49q20 0 20 -28q0 -18 -4 -58q-10 -96 -10 -227q0 -49 10 -143v-19q0 -27 -16 -26q-16 0 -29 30q-29 70 -57 88q-150 -129 -359 -129q-33 0 -57 2v-40q82 0 136 -44.5t54 -109.5 q0 -70 -56 -119t-138 -49q-45 0 -98.5 25.5t-53.5 48.5q0 12 15 12q8 0 30 -16q27 -23 68 -23t72.5 44t31.5 104q0 100 -75 100q-18 0 -29 -2v76q-264 39 -428 240.5t-164 490.5z" />
<glyph unicode="&#xc8;" horiz-adv-x="1191" d="M53 14q0 12 13 15q6 0 77 6q53 4 64.5 22.5t11.5 96.5v1151q0 59 -17.5 70t-111.5 11q-33 0 -33 19q0 18 45 18l351 -2q18 0 231 2h287q61 0 112 9q4 -88 19 -244l8 -88q2 -10 2 -27q0 -20 -18 -20q-23 0 -33 51q-39 184 -127 233q-66 37 -344 37h-168v-600h49 q229 0 279.5 35t68.5 203q4 43 23 43q23 0 22 -37q0 -37 -4 -108.5t-4 -108.5q0 -219 8 -301q2 -20 2 -35q0 -27 -22 -27q-14 0 -19.5 17.5t-17.5 113.5q-16 121 -100 150q-37 12 -193 12h-92v-688q451 0 528 18q135 31 154 263q4 51 26 51q20 0 21 -43q0 -8 -4 -100.5 t-4 -176.5v-67q-201 10 -795 10q-72 0 -141 -2h-94h-21q-39 0 -39 18zM373 1876l35 2l59 2h43q37 0 65 -2l84 -182q8 -16 23 -54l16 -36l13 -29q4 -8 4 -12q0 -10 -13 -11q-18 0 -143 129z" />
<glyph unicode="&#xc9;" horiz-adv-x="1191" d="M53 14q0 12 13 15q6 0 77 6q53 4 64.5 22.5t11.5 96.5v1151q0 59 -17.5 70t-111.5 11q-33 0 -33 19q0 18 45 18l351 -2q18 0 231 2h287q61 0 112 9q4 -88 19 -244l8 -88q2 -10 2 -27q0 -20 -18 -20q-23 0 -33 51q-39 184 -127 233q-66 37 -344 37h-168v-600h49 q229 0 279.5 35t68.5 203q4 43 23 43q23 0 22 -37q0 -37 -4 -108.5t-4 -108.5q0 -219 8 -301q2 -20 2 -35q0 -27 -22 -27q-14 0 -19.5 17.5t-17.5 113.5q-16 121 -100 150q-37 12 -193 12h-92v-688q451 0 528 18q135 31 154 263q4 51 26 51q20 0 21 -43q0 -8 -4 -100.5 t-4 -176.5v-67q-201 10 -795 10q-72 0 -141 -2h-94h-21q-39 0 -39 18zM578 1565q0 4 4 12q23 55 67 160l66 141q31 2 67 2q63 0 101 -2l37 -2l-187 -193q-125 -129 -143 -129q-12 1 -12 11z" />
<glyph unicode="&#xca;" horiz-adv-x="1191" d="M53 14q0 12 13 15q6 0 77 6q53 4 64.5 22.5t11.5 96.5v1151q0 59 -17.5 70t-111.5 11q-33 0 -33 19q0 18 45 18l351 -2q18 0 231 2h287q61 0 112 9q4 -88 19 -244l8 -88q2 -10 2 -27q0 -20 -18 -20q-23 0 -33 51q-39 184 -127 233q-66 37 -344 37h-168v-600h49 q229 0 279.5 35t68.5 203q4 43 23 43q23 0 22 -37q0 -37 -4 -108.5t-4 -108.5q0 -219 8 -301q2 -20 2 -35q0 -27 -22 -27q-14 0 -19.5 17.5t-17.5 113.5q-16 121 -100 150q-37 12 -193 12h-92v-688q451 0 528 18q135 31 154 263q4 51 26 51q20 0 21 -43q0 -8 -4 -100.5 t-4 -176.5v-67q-201 10 -795 10q-72 0 -141 -2h-94h-21q-39 0 -39 18zM389 1552q0 6 12 19q92 90 174 266q33 72 52 72q16 0 55 -74q80 -152 192 -291h-135q-72 68 -149 225q-45 -92 -99.5 -161.5t-82.5 -69.5q-19 0 -19 14z" />
<glyph unicode="&#xcb;" horiz-adv-x="1191" d="M53 14q0 12 13 15q6 0 77 6q53 4 64.5 22.5t11.5 96.5v1151q0 59 -17.5 70t-111.5 11q-33 0 -33 19q0 18 45 18l351 -2q18 0 231 2h287q61 0 112 9q4 -88 19 -244l8 -88q2 -10 2 -27q0 -20 -18 -20q-23 0 -33 51q-39 184 -127 233q-66 37 -344 37h-168v-600h49 q229 0 279.5 35t68.5 203q4 43 23 43q23 0 22 -37q0 -37 -4 -108.5t-4 -108.5q0 -219 8 -301q2 -20 2 -35q0 -27 -22 -27q-14 0 -19.5 17.5t-17.5 113.5q-16 121 -100 150q-37 12 -193 12h-92v-688q451 0 528 18q135 31 154 263q4 51 26 51q20 0 21 -43q0 -8 -4 -100.5 t-4 -176.5v-67q-201 10 -795 10q-72 0 -141 -2h-94h-21q-39 0 -39 18zM369 1667q0 43 28.5 71.5t69.5 28.5t70.5 -30.5t29.5 -71.5q0 -39 -29.5 -67.5t-70.5 -28.5t-69.5 28.5t-28.5 69.5zM723 1665q0 41 29.5 70.5t72.5 29.5q41 0 68 -29.5t27 -74.5q0 -39 -28 -65.5 t-69 -26.5q-43 0 -71.5 27.5t-28.5 68.5z" />
<glyph unicode="&#xcc;" horiz-adv-x="643" d="M35 1876l35 2l59 2h43q37 0 66 -2l84 -182q8 -16 22 -54l16 -36l13 -29q4 -8 4 -12q0 -10 -12 -11q-18 0 -144 129zM55 18q0 16 54 19q82 2 96 19.5t14 117.5v1077q0 100 -10 113q-12 20 -113 25q-39 2 -39 16q0 18 25 18l276 -4q31 0 119 2l78 2q33 0 33 -18 q0 -16 -90 -21q-51 -2 -62.5 -18t-11.5 -86v-1094q0 -117 10 -127q23 -23 133 -26q23 0 23 -17q0 -16 -25 -16h-20q-12 6 -279 6q-51 0 -102 -4q-27 -2 -82 -2q-27 0 -27 18z" />
<glyph unicode="&#xcd;" horiz-adv-x="643" d="M55 18q0 16 54 19q82 2 96 19.5t14 117.5v1077q0 100 -10 113q-12 20 -113 25q-39 2 -39 16q0 18 25 18l276 -4q31 0 119 2l78 2q33 0 33 -18q0 -16 -90 -21q-51 -2 -62.5 -18t-11.5 -86v-1094q0 -117 10 -127q23 -23 133 -26q23 0 23 -17q0 -16 -25 -16h-20 q-12 6 -279 6q-51 0 -102 -4q-27 -2 -82 -2q-27 0 -27 18zM252 1565q0 4 4 12q23 55 68 160l65 141q31 2 68 2q63 0 100 -2l37 -2l-186 -193q-125 -129 -144 -129q-12 1 -12 11z" />
<glyph unicode="&#xce;" horiz-adv-x="643" d="M55 18q0 16 54 19q82 2 96 19.5t14 117.5v1077q0 100 -10 113q-12 20 -113 25q-39 2 -39 16q0 18 25 18l276 -4q31 0 119 2l78 2q33 0 33 -18q0 -16 -90 -21q-51 -2 -62.5 -18t-11.5 -86v-1094q0 -117 10 -127q23 -23 133 -26q23 0 23 -17q0 -16 -25 -16h-20 q-12 6 -279 6q-51 0 -102 -4q-27 -2 -82 -2q-27 0 -27 18zM90 1552q0 6 12 19q92 90 174 266q33 72 52 72q16 0 55 -74q80 -152 192 -291h-135q-72 68 -149 225q-45 -92 -99.5 -161.5t-82.5 -69.5q-19 0 -19 14z" />
<glyph unicode="&#xcf;" horiz-adv-x="643" d="M55 18q0 16 54 19q82 2 96 19.5t14 117.5v1077q0 100 -10 113q-12 20 -113 25q-39 2 -39 16q0 18 25 18l276 -4q31 0 119 2l78 2q33 0 33 -18q0 -16 -90 -21q-51 -2 -62.5 -18t-11.5 -86v-1094q0 -117 10 -127q23 -23 133 -26q23 0 23 -17q0 -16 -25 -16h-20 q-12 6 -279 6q-51 0 -102 -4q-27 -2 -82 -2q-27 0 -27 18zM76 1667q0 43 28.5 71.5t69.5 28.5t70.5 -30.5t29.5 -71.5q0 -39 -29.5 -67.5t-70.5 -28.5t-69.5 28.5t-28.5 69.5zM369 1665q0 41 29.5 70.5t72.5 29.5q39 0 66.5 -29.5t27.5 -72.5q0 -41 -27.5 -67.5t-68.5 -26.5 t-70.5 28.5t-29.5 67.5z" />
<glyph unicode="&#xd0;" horiz-adv-x="1466" d="M41 20q0 18 65 19q84 0 105 31q8 14 8 77v553h-143q-35 0 -35 25t47 25h131v501q0 100 -15.5 116.5t-105.5 16.5q-47 0 -47 23q0 16 35 16q-2 0 45 -2t92 -2h219q367 0 523 -51q186 -61 300.5 -243.5t114.5 -417.5q0 -358 -252 -560q-184 -147 -491 -147q-8 0 -73.5 2 t-188.5 2h-103l-161 -2q-14 -2 -31 -2q-39 0 -39 20zM424 158q0 -57 3 -69.5t17 -20.5q49 -25 207 -25q223 0 357 156q143 166 143 518q0 340 -133 498.5t-418 158.5q-135 0 -164 -28q-12 -14 -12 -99v-497h274q31 0 31 -27q0 -23 -45 -23h-260v-542z" />
<glyph unicode="&#xd1;" horiz-adv-x="1343" d="M-16 1401q0 18 30 18q41 0 104.5 -2t67.5 -2q6 0 58 2q68 0 131 2l706 -1050v911q0 63 -2 76.5t-16 20.5t-98 7q-74 0 -74 19q0 20 49 20h72h57q33 -2 39 -2q2 0 37 2h61h64q45 0 45 -20t-51 -19l-45 2h-37q-33 0 -39 -11t-6 -68v-1180q0 -109 -2 -127t-13 -18 q-12 0 -28 22l-263 383q-227 334 -552 834l2 -1143q2 -27 30.5 -34t137.5 -9q27 0 26 -17q0 -20 -53 -20q-18 0 -117 6q-33 2 -63 2q2 0 -36 -4t-116 -4h-20q-47 0 -47 18t40 19q121 2 140.5 15t19.5 87v1010q0 170 -69 213q-33 20 -117 20q-53 1 -53 21zM381 1657 q0 55 44 95t105 40q70 0 191 -63.5t149 -63.5q25 0 45 72q10 35 29 35q18 0 19 -17q0 -49 -42 -116.5t-122 -67.5q-49 0 -187 71q-125 66 -149 66q-41 0 -41 -43q0 -23 31 -55q10 -10 10 -17q0 -16 -21 -16q-20 0 -40.5 26.5t-20.5 53.5z" />
<glyph unicode="&#xd2;" horiz-adv-x="1474" d="M88 717q0 319 185.5 523t474.5 204q272 0 456.5 -213t184.5 -529q0 -305 -183.5 -516t-449.5 -211q-283 0 -475.5 214.5t-192.5 527.5zM317 707q0 -330 116 -512.5t325 -182.5q195 0 293 172q109 190 108 508q0 375 -153 584q-96 131 -269 131q-164 0 -254 -100 q-166 -184 -166 -600zM453 1876l34 2l60 2h43q37 0 65 -2l84 -182q8 -16 23 -54l16 -36l13 -29q4 -8 4 -12q0 -10 -13 -11q-18 0 -143 129z" />
<glyph unicode="&#xd3;" horiz-adv-x="1474" d="M88 717q0 319 185.5 523t474.5 204q272 0 456.5 -213t184.5 -529q0 -305 -183.5 -516t-449.5 -211q-283 0 -475.5 214.5t-192.5 527.5zM317 707q0 -330 116 -512.5t325 -182.5q195 0 293 172q109 190 108 508q0 375 -153 584q-96 131 -269 131q-164 0 -254 -100 q-166 -184 -166 -600zM668 1565q0 4 4 12q23 55 67 160l66 141q31 2 67 2q63 0 101 -2l37 -2l-187 -193q-125 -129 -143 -129q-12 1 -12 11z" />
<glyph unicode="&#xd4;" horiz-adv-x="1474" d="M88 717q0 319 185.5 523t474.5 204q272 0 456.5 -213t184.5 -529q0 -305 -183.5 -516t-449.5 -211q-283 0 -475.5 214.5t-192.5 527.5zM317 707q0 -330 116 -512.5t325 -182.5q195 0 293 172q109 190 108 508q0 375 -153 584q-96 131 -269 131q-164 0 -254 -100 q-166 -184 -166 -600zM506 1552q0 6 12 19q92 90 174 266q33 72 51 72q16 0 56 -74q80 -152 192 -291h-135q-72 68 -149 225q-45 -92 -99.5 -161.5t-83.5 -69.5q-18 0 -18 14z" />
<glyph unicode="&#xd5;" horiz-adv-x="1474" d="M88 717q0 319 185.5 523t474.5 204q272 0 456.5 -213t184.5 -529q0 -305 -183.5 -516t-449.5 -211q-283 0 -475.5 214.5t-192.5 527.5zM317 707q0 -330 116 -512.5t325 -182.5q195 0 293 172q109 190 108 508q0 375 -153 584q-96 131 -269 131q-164 0 -254 -100 q-166 -184 -166 -600zM449 1657q0 55 44 95t105 40q70 0 190.5 -63.5t149.5 -63.5q25 0 45 72q10 35 29 35q18 0 18 -17q0 -49 -42 -116.5t-122 -67.5q-49 0 -186 71q-125 66 -150 66q-41 0 -41 -43q0 -23 31 -55q10 -10 10 -17q0 -16 -20 -16t-40.5 26.5t-20.5 53.5z" />
<glyph unicode="&#xd6;" horiz-adv-x="1474" d="M88 717q0 319 185.5 523t474.5 204q272 0 456.5 -213t184.5 -529q0 -305 -183.5 -516t-449.5 -211q-283 0 -475.5 214.5t-192.5 527.5zM317 707q0 -330 116 -512.5t325 -182.5q195 0 293 172q109 190 108 508q0 375 -153 584q-96 131 -269 131q-164 0 -254 -100 q-166 -184 -166 -600zM459 1667q0 43 28.5 71.5t69.5 28.5t70.5 -30.5t29.5 -71.5q0 -39 -29.5 -67.5t-70.5 -28.5t-69.5 28.5t-28.5 69.5zM813 1665q0 41 29.5 70.5t72.5 29.5q41 0 68 -29.5t27 -74.5q0 -39 -28 -65.5t-69 -26.5q-43 0 -71.5 27.5t-28.5 68.5z" />
<glyph unicode="&#xd7;" d="M188 383l306 305l-306 303l54 53l303 -305l305 305l53 -53l-305 -303l305 -305l-53 -53l-305 305l-303 -305z" />
<glyph unicode="&#xd8;" horiz-adv-x="1474" d="M88 721q0 311 185.5 517t467.5 206q186 0 344 -105l115 191q8 14 29 14q31 0 31 -22q0 -6 -13 -27l-117 -192q258 -233 259 -603q0 -305 -183.5 -515t-449.5 -210q-193 0 -361 115l-114 -190q-10 -18 -31 -19q-33 0 -33 23q0 4 16 30l115 191q-260 215 -260 596zM317 711 q0 -293 91 -488l622 1026q-100 158 -289 158q-190 0 -290 -145q-134 -193 -134 -551zM442 168q127 -156 314 -156q250 0 350 293q53 154 53 400q0 262 -96 487z" />
<glyph unicode="&#xd9;" horiz-adv-x="1363" d="M43 1403q0 18 29 18h37q10 0 47 -2h59l293 2q10 2 24 2q35 0 35 -22q0 -14 -12 -16.5t-82 -4.5q-29 0 -39 -4q-20 -8 -22 -28q-2 -8 -2 -117v-733q0 -270 86 -368.5t256 -98.5q311 0 352 354q6 53 6 451v116l2 164l-2 141v46q2 27 2 22q0 45 -43 55q-14 4 -84 4 q-41 0 -41 23q0 18 29 18q16 0 26 -2q25 -2 179 -2q23 0 51 2h39h30q47 0 48 -20q0 -18 -37 -19q-6 0 -41 2q-10 2 -29 3q-51 0 -61 -27q-4 -14 -4 -47v-768q0 -299 -112 -435.5t-360 -136.5q-297 0 -417 168q-80 113 -80 371l-2 821q-6 37 -49 45q-12 2 -76 2q-35 5 -35 21 zM471 1876l35 2l59 2h43q37 0 66 -2l84 -182q8 -16 22 -54l17 -36l12 -29q4 -8 4 -12q0 -10 -12 -11q-18 0 -144 129z" />
<glyph unicode="&#xda;" horiz-adv-x="1363" d="M43 1403q0 18 29 18h37q10 0 47 -2h59l293 2q10 2 24 2q35 0 35 -22q0 -14 -12 -16.5t-82 -4.5q-29 0 -39 -4q-20 -8 -22 -28q-2 -8 -2 -117v-733q0 -270 86 -368.5t256 -98.5q311 0 352 354q6 53 6 451v116l2 164l-2 141v46q2 27 2 22q0 45 -43 55q-14 4 -84 4 q-41 0 -41 23q0 18 29 18q16 0 26 -2q25 -2 179 -2q23 0 51 2h39h30q47 0 48 -20q0 -18 -37 -19q-6 0 -41 2q-10 2 -29 3q-51 0 -61 -27q-4 -14 -4 -47v-768q0 -299 -112 -435.5t-360 -136.5q-297 0 -417 168q-80 113 -80 371l-2 821q-6 37 -49 45q-12 2 -76 2q-35 5 -35 21 zM676 1565q0 4 4 12q23 55 68 160l65 141q31 2 68 2q63 0 100 -2l37 -2l-187 -193q-125 -129 -143 -129q-12 1 -12 11z" />
<glyph unicode="&#xdb;" horiz-adv-x="1363" d="M43 1403q0 18 29 18h37q10 0 47 -2h59l293 2q10 2 24 2q35 0 35 -22q0 -14 -12 -16.5t-82 -4.5q-29 0 -39 -4q-20 -8 -22 -28q-2 -8 -2 -117v-733q0 -270 86 -368.5t256 -98.5q311 0 352 354q6 53 6 451v116l2 164l-2 141v46q2 27 2 22q0 45 -43 55q-14 4 -84 4 q-41 0 -41 23q0 18 29 18q16 0 26 -2q25 -2 179 -2q23 0 51 2h39h30q47 0 48 -20q0 -18 -37 -19q-6 0 -41 2q-10 2 -29 3q-51 0 -61 -27q-4 -14 -4 -47v-768q0 -299 -112 -435.5t-360 -136.5q-297 0 -417 168q-80 113 -80 371l-2 821q-6 37 -49 45q-12 2 -76 2q-35 5 -35 21 zM487 1552q0 6 13 19q92 90 174 266q33 72 51 72q16 0 55 -74q80 -152 193 -291h-135q-72 68 -150 225q-45 -92 -99 -161.5t-83 -69.5q-19 0 -19 14z" />
<glyph unicode="&#xdc;" horiz-adv-x="1363" d="M43 1403q0 18 29 18h37q10 0 47 -2h59l293 2q10 2 24 2q35 0 35 -22q0 -14 -12 -16.5t-82 -4.5q-29 0 -39 -4q-20 -8 -22 -28q-2 -8 -2 -117v-733q0 -270 86 -368.5t256 -98.5q311 0 352 354q6 53 6 451v116l2 164l-2 141v46q2 27 2 22q0 45 -43 55q-14 4 -84 4 q-41 0 -41 23q0 18 29 18q16 0 26 -2q25 -2 179 -2q23 0 51 2h39h30q47 0 48 -20q0 -18 -37 -19q-6 0 -41 2q-10 2 -29 3q-51 0 -61 -27q-4 -14 -4 -47v-768q0 -299 -112 -435.5t-360 -136.5q-297 0 -417 168q-80 113 -80 371l-2 821q-6 37 -49 45q-12 2 -76 2q-35 5 -35 21 zM442 1667q0 43 29 71.5t70 28.5t70.5 -30.5t29.5 -71.5q0 -39 -29.5 -67.5t-70.5 -28.5t-70 28.5t-29 69.5zM797 1665q0 41 29.5 70.5t72.5 29.5q41 0 67.5 -29.5t26.5 -74.5q0 -39 -27.5 -65.5t-68.5 -26.5q-43 0 -71.5 27.5t-28.5 68.5z" />
<glyph unicode="&#xdd;" horiz-adv-x="1243" d="M-35 1411q0 16 33 16q43 0 172 -4q74 -2 106 -2l238 2q14 2 33 2q37 0 37 -20q0 -18 -70 -19q-127 0 -127 -45q0 -35 129 -280l186 -354q51 92 117 227l121 244q68 131 68 172q0 27 -35 30q-72 10 -96 9q-45 -2 -46 20q0 16 39 16l119 -2l68 2q209 6 209 -20 q0 -16 -35 -16q-113 -2 -139 -39q-25 -23 -177 -349q-68 -145 -127 -256q-41 -76 -47 -103.5t-6 -119.5v-387q0 -68 17.5 -80t121.5 -18q55 -4 56 -21q0 -16 -29 -16h-24l-287 6q-121 0 -199 -4q-12 -2 -29 -2q-29 0 -28 18q0 18 47 21q113 4 133.5 20.5t20.5 98.5v432 q-20 45 -119 239l-205 406q-31 59 -74 133q-23 20 -97.5 20t-74.5 23zM602 1565q0 4 4 12q23 55 68 160l65 141q31 2 68 2q63 0 100 -2l37 -2l-186 -193q-125 -129 -144 -129q-12 1 -12 11z" />
<glyph unicode="&#xde;" horiz-adv-x="1083" d="M55 18q0 16 54 19q74 2 92 16.5t18 65.5v1181q0 59 -15.5 71.5t-107.5 17.5q-39 2 -39 16q0 18 25 18h18q31 0 131.5 -2t126.5 -2q-6 0 54.5 2t117.5 2h23q35 0 35 -18q0 -16 -90 -21q-51 -2 -62.5 -18t-11.5 -86v-180q168 0 260 -6q160 -10 261.5 -100.5t101.5 -221.5 q0 -88 -49.5 -170t-129.5 -129q-119 -70 -284 -70q-72 0 -160 15v-299q0 -55 21.5 -68.5t121.5 -17.5q23 0 23 -17q0 -16 -25 -16h-20l-135 4q-74 2 -80 2q-31 0 -109 -3t-117 -3h-10q-39 0 -39 18zM424 449q219 2 313 74.5t94 242.5q0 295 -282 295q-86 0 -113 -29 q-12 -12 -12 -59v-524z" />
<glyph unicode="&#xdf;" horiz-adv-x="1013" d="M-2 10q0 16 37 17q66 -2 80 6q29 12 28 69v703q0 330 58 448q94 195 329 195q152 0 254.5 -83t102.5 -206q0 -119 -84 -203t-221 -100v-10q102 -6 198 -64q170 -102 170 -360q0 -225 -143 -354q-102 -92 -229 -93q-86 0 -141.5 45.5t-55.5 114.5q0 47 28.5 77t73.5 30 q39 0 65.5 -23.5t26.5 -58.5q0 -53 -65 -82q-33 -14 -33 -29q0 -16 26.5 -29.5t59.5 -13.5q96 0 148.5 107.5t52.5 300.5q0 416 -283 415h-39q-29 0 -28 19q0 16 47 16q258 2 258 320q0 231 -176 231q-145 0 -197 -145q-33 -94 -33 -340v-930l-241 -4q-74 0 -74 14z" />
<glyph unicode="&#xe0;" horiz-adv-x="813" d="M74 162q0 168 202 266q70 33 242 66v51q0 180 -18 237q-33 104 -148 105q-72 0 -120 -39t-48 -98q0 -16 26 -16.5t46 -25t20 -55.5q0 -90 -90 -90q-47 0 -77.5 32t-30.5 81q0 96 76 166q84 76 233 76q225 0 277 -123q18 -47 18 -187v-383q0 -94 2 -110q10 -74 59 -74 q57 0 95 41q20 23 30 22q10 0 11 -12q0 -35 -73 -72.5t-140 -37.5q-141 0 -148 145q-78 -152 -242 -152q-88 0 -145 52.5t-57 134.5zM100 1358h35l60 2h108l84 -182q0 -2 23 -54l28 -67q4 -8 4 -13q0 -10 -12 -10q-20 0 -143 129zM231 217q0 -66 38 -107.5t96 -41.5 q88 0 141 98q12 23 12 143v150q-154 -35 -220.5 -91.5t-66.5 -150.5z" />
<glyph unicode="&#xe1;" horiz-adv-x="813" d="M74 162q0 168 202 266q70 33 242 66v51q0 180 -18 237q-33 104 -148 105q-72 0 -120 -39t-48 -98q0 -16 26 -16.5t46 -25t20 -55.5q0 -90 -90 -90q-47 0 -77.5 32t-30.5 81q0 96 76 166q84 76 233 76q225 0 277 -123q18 -47 18 -187v-383q0 -94 2 -110q10 -74 59 -74 q57 0 95 41q20 23 30 22q10 0 11 -12q0 -35 -73 -72.5t-140 -37.5q-141 0 -148 145q-78 -152 -242 -152q-88 0 -145 52.5t-57 134.5zM231 217q0 -66 38 -107.5t96 -41.5q88 0 141 98q12 23 12 143v150q-154 -35 -220.5 -91.5t-66.5 -150.5zM330 1044q0 4 4 13q23 55 67 160 l66 143h68h28q27 -2 72 -2h37l-187 -195q-123 -129 -143 -129q-12 0 -12 10z" />
<glyph unicode="&#xe2;" horiz-adv-x="813" d="M74 162q0 168 202 266q70 33 242 66v51q0 180 -18 237q-33 104 -148 105q-72 0 -120 -39t-48 -98q0 -16 26 -16.5t46 -25t20 -55.5q0 -90 -90 -90q-47 0 -77.5 32t-30.5 81q0 96 76 166q84 76 233 76q225 0 277 -123q18 -47 18 -187v-383q0 -94 2 -110q10 -74 59 -74 q57 0 95 41q20 23 30 22q10 0 11 -12q0 -35 -73 -72.5t-140 -37.5q-141 0 -148 145q-78 -152 -242 -152q-88 0 -145 52.5t-57 134.5zM150 1034q0 8 12 17q94 94 174 266q33 72 51 72q16 0 55 -74q80 -154 195 -291h-135q-76 72 -150 227q-43 -88 -99 -159.5t-85 -71.5 q-18 0 -18 14zM231 217q0 -66 38 -107.5t96 -41.5q88 0 141 98q12 23 12 143v150q-154 -35 -220.5 -91.5t-66.5 -150.5z" />
<glyph unicode="&#xe3;" horiz-adv-x="813" d="M74 162q0 168 202 266q70 33 242 66v51q0 180 -18 237q-33 104 -148 105q-72 0 -120 -39t-48 -98q0 -16 26 -16.5t46 -25t20 -55.5q0 -90 -90 -90q-47 0 -77.5 32t-30.5 81q0 96 76 166q84 76 233 76q225 0 277 -123q18 -47 18 -187v-383q0 -94 2 -110q10 -74 59 -74 q57 0 95 41q20 23 30 22q10 0 11 -12q0 -35 -73 -72.5t-140 -37.5q-141 0 -148 145q-78 -152 -242 -152q-88 0 -145 52.5t-57 134.5zM117 1139q0 53 44 93t105 40q66 0 189 -62.5t151 -62.5q25 0 45 70q10 35 29 34q18 0 18 -16q0 -51 -42 -116.5t-121 -65.5 q-55 0 -183.5 67.5t-152.5 67.5q-14 0 -27.5 -14.5t-13.5 -28.5q0 -23 30 -55q10 -6 11 -17q0 -14 -21 -14q-20 0 -40.5 25.5t-20.5 54.5zM231 217q0 -66 38 -107.5t96 -41.5q88 0 141 98q12 23 12 143v150q-154 -35 -220.5 -91.5t-66.5 -150.5z" />
<glyph unicode="&#xe4;" horiz-adv-x="813" d="M74 162q0 168 202 266q70 33 242 66v51q0 180 -18 237q-33 104 -148 105q-72 0 -120 -39t-48 -98q0 -16 26 -16.5t46 -25t20 -55.5q0 -90 -90 -90q-47 0 -77.5 32t-30.5 81q0 96 76 166q84 76 233 76q225 0 277 -123q18 -47 18 -187v-383q0 -94 2 -110q10 -74 59 -74 q57 0 95 41q20 23 30 22q10 0 11 -12q0 -35 -73 -72.5t-140 -37.5q-141 0 -148 145q-78 -152 -242 -152q-88 0 -145 52.5t-57 134.5zM117 1147q0 43 28.5 71.5t71.5 28.5q39 0 68.5 -30.5t29.5 -71.5q0 -39 -29.5 -67.5t-70.5 -28.5t-69.5 28.5t-28.5 69.5zM231 217 q0 -66 38 -107.5t96 -41.5q88 0 141 98q12 23 12 143v150q-154 -35 -220.5 -91.5t-66.5 -150.5zM471 1147q0 41 29.5 70.5t72.5 29.5q41 0 68 -29.5t27 -74.5q0 -39 -28 -65.5t-69 -26.5q-43 0 -71.5 27.5t-28.5 68.5z" />
<glyph unicode="&#xe5;" horiz-adv-x="813" d="M74 162q0 168 202 266q70 33 242 66v51q0 180 -18 237q-33 104 -148 105q-72 0 -120 -39t-48 -98q0 -16 26 -16.5t46 -25t20 -55.5q0 -90 -90 -90q-47 0 -77.5 32t-30.5 81q0 96 76 166q84 76 233 76q225 0 277 -123q18 -47 18 -187v-383q0 -94 2 -110q10 -74 59 -74 q57 0 95 41q20 23 30 22q10 0 11 -12q0 -35 -73 -72.5t-140 -37.5q-141 0 -148 145q-78 -152 -242 -152q-88 0 -145 52.5t-57 134.5zM227 1219q0 76 52.5 127t128.5 51t128 -51.5t52 -124.5q0 -76 -52.5 -126.5t-132.5 -50.5q-72 0 -124 51.5t-52 123.5zM231 217 q0 -66 38 -107.5t96 -41.5q88 0 141 98q12 23 12 143v150q-154 -35 -220.5 -91.5t-66.5 -150.5zM299 1219q0 -49 31.5 -83t79.5 -34q47 0 77.5 33.5t30.5 87.5q0 51 -31.5 83.5t-80.5 32.5q-45 0 -76 -34.5t-31 -85.5z" />
<glyph unicode="&#xe6;" horiz-adv-x="1347" d="M86 178q0 166 203 273q84 43 266 86q0 182 -20 243q-35 106 -144 107q-72 0 -122 -37t-50 -88q0 -20 33 -21q20 0 40.5 -25.5t20.5 -53.5q0 -88 -90 -89q-47 0 -77.5 30t-30.5 77q0 90 77.5 164t231.5 74q92 0 150.5 -26t119.5 -91q98 117 250 117q268 0 344 -265 q-98 -41 -342 -82q-25 -4 -137 -24q-16 -2 -90 -17q-2 -27 -2 -73q0 -236 112 -342q74 -70 183 -70q164 0 245 176q8 16 23 17q16 0 16 -15q0 -20 -29.5 -69.5t-60.5 -81.5q-94 -96 -250 -97q-254 0 -370 213q-96 -213 -277 -213q-102 0 -162.5 55.5t-60.5 147.5zM242 219 q0 -72 43 -114t116 -42q135 0 152 218q2 27 2 221q-313 -74 -313 -283zM721 569q291 39 407 78q-45 242 -192 242q-190 -1 -215 -320z" />
<glyph unicode="&#xe7;" horiz-adv-x="837" d="M63 432q0 207 124 346.5t311 139.5q125 0 218 -63.5t93 -147.5q0 -94 -92 -95q-90 0 -90 86q0 23 20 68q6 14 6 29q0 41 -42 67.5t-105 26.5q-123 0 -190.5 -106.5t-67.5 -299.5q0 -217 69.5 -334.5t196.5 -117.5q86 0 154 53q31 25 80 94q10 10 18 10q20 0 20 -16 q0 -25 -71 -100q-90 -96 -234 -97q-25 0 -45 2v-40q82 0 136.5 -44.5t54.5 -109.5q0 -70 -56.5 -119t-138.5 -49q-45 0 -98 25.5t-53 48.5q0 12 14 12q8 0 31 -16q31 -23 67 -23q41 0 73 44t32 104q0 100 -76 100q-18 0 -29 -2v76q-152 35 -241 156.5t-89 291.5z" />
<glyph unicode="&#xe8;" horiz-adv-x="880" d="M63 438q0 205 118 342.5t294 137.5q145 0 243.5 -85t104.5 -219q-66 -10 -174 -8l-143 2q-14 0 -246 -6q-10 -68 -10 -129q0 -207 79 -318.5t222 -111.5q82 0 131 37t106 141q8 16 23 17q16 0 16 -15q0 -20 -31.5 -72.5t-64.5 -84.5q-88 -90 -235 -91q-184 0 -308.5 133 t-124.5 330zM209 1358h35l59 2h109l84 -182q0 -2 22 -54l29 -67q4 -8 4 -13q0 -10 -12 -10q-20 0 -144 129zM266 641h383q-8 246 -176 246q-166 0 -207 -246z" />
<glyph unicode="&#xe9;" horiz-adv-x="880" d="M63 438q0 205 118 342.5t294 137.5q145 0 243.5 -85t104.5 -219q-66 -10 -174 -8l-143 2q-14 0 -246 -6q-10 -68 -10 -129q0 -207 79 -318.5t222 -111.5q82 0 131 37t106 141q8 16 23 17q16 0 16 -15q0 -20 -31.5 -72.5t-64.5 -84.5q-88 -90 -235 -91q-184 0 -308.5 133 t-124.5 330zM266 641h383q-8 246 -176 246q-166 0 -207 -246zM401 1044q0 4 5 13q23 55 67 160l66 143h67h29q27 -2 72 -2h36l-186 -195q-123 -129 -143 -129q-13 0 -13 10z" />
<glyph unicode="&#xea;" horiz-adv-x="880" d="M63 438q0 205 118 342.5t294 137.5q145 0 243.5 -85t104.5 -219q-66 -10 -174 -8l-143 2q-14 0 -246 -6q-10 -68 -10 -129q0 -207 79 -318.5t222 -111.5q82 0 131 37t106 141q8 16 23 17q16 0 16 -15q0 -20 -31.5 -72.5t-64.5 -84.5q-88 -90 -235 -91q-184 0 -308.5 133 t-124.5 330zM246 1034q0 8 12 17q94 94 174 266q33 72 51 72q16 0 56 -74q80 -154 194 -291h-135q-76 72 -149 227q-43 -88 -99.5 -159.5t-85.5 -71.5q-18 0 -18 14zM266 641h383q-8 246 -176 246q-166 0 -207 -246z" />
<glyph unicode="&#xeb;" horiz-adv-x="880" d="M63 438q0 205 118 342.5t294 137.5q145 0 243.5 -85t104.5 -219q-66 -10 -174 -8l-143 2q-14 0 -246 -6q-10 -68 -10 -129q0 -207 79 -318.5t222 -111.5q82 0 131 37t106 141q8 16 23 17q16 0 16 -15q0 -20 -31.5 -72.5t-64.5 -84.5q-88 -90 -235 -91q-184 0 -308.5 133 t-124.5 330zM207 1147q0 43 28.5 71.5t71.5 28.5q39 0 69 -30.5t30 -71.5q0 -39 -30 -67.5t-71 -28.5t-69.5 28.5t-28.5 69.5zM266 641h383q-8 246 -176 246q-166 0 -207 -246zM561 1147q0 41 30 70.5t73 29.5q41 0 67.5 -29.5t26.5 -74.5q0 -39 -28 -65.5t-68 -26.5 q-43 0 -72 27.5t-29 68.5z" />
<glyph unicode="&#xec;" horiz-adv-x="514" d="M-12 1358h35l59 2h108l84 -182q0 -2 23 -54l29 -67q4 -8 4 -13q0 -10 -13 -10q-20 0 -143 129zM45 829q0 14 35 17q137 6 235 65l21 13q16 -31 16 -113q0 4 0 -20q-2 -25 -2 -80v-559q0 -82 3 -96.5t22 -18.5q31 -8 90 -8q29 0 29 -17q0 -18 -35 -18q2 0 -49 4 q-61 4 -103 4l-213 -4q-10 -2 -24 -2q-23 0 -23 14q0 20 41 21q78 2 85 11t7 85l-2 621q-2 51 -5 60t-26 9l-59 -2q-8 -2 -20 -2q-23 0 -23 16z" />
<glyph unicode="&#xed;" horiz-adv-x="514" d="M47 829q0 14 35 17q137 6 235 65l21 13q16 -31 16 -113q0 4 0 -20q-2 -25 -2 -80v-559q0 -82 3 -96.5t22 -18.5q31 -8 90 -8q29 0 29 -17q0 -18 -35 -18q2 0 -49 4q-61 4 -103 4l-213 -4q-10 -2 -24 -2q-23 0 -23 14q0 20 41 21q78 2 85 11t7 85l-2 621q-2 51 -5 60 t-25 9l-60 -2q-8 -2 -20 -2q-23 0 -23 16zM182 1044q0 4 4 13q23 55 68 160l65 143h68h29q27 -2 71 -2h37l-186 -195q-123 -129 -143 -129q-13 0 -13 10z" />
<glyph unicode="&#xee;" horiz-adv-x="514" d="M6 1034q0 8 12 17q94 94 175 266q33 72 51 72q16 0 55 -74q80 -154 195 -291h-136q-76 72 -149 227q-43 -88 -99.5 -159.5t-84.5 -71.5q-19 0 -19 14zM47 829q0 14 35 17q137 6 235 65l21 13q16 -31 16 -113q0 4 0 -20q-2 -25 -2 -80v-559q0 -82 3 -96.5t22 -18.5 q31 -8 90 -8q29 0 29 -17q0 -18 -35 -18q2 0 -49 4q-61 4 -103 4l-213 -4q-10 -2 -24 -2q-23 0 -23 14q0 20 41 21q78 2 85 11t7 85l-2 621q-2 51 -5 60t-25 9l-60 -2q-8 -2 -20 -2q-23 0 -23 16z" />
<glyph unicode="&#xef;" horiz-adv-x="514" d="M16 1147q0 43 29 71.5t72 28.5q39 0 68.5 -30.5t29.5 -71.5q0 -39 -29.5 -67.5t-70.5 -28.5t-70 28.5t-29 69.5zM45 829q0 14 35 17q137 6 235 65l21 13q16 -31 16 -113q0 4 0 -20q-2 -25 -2 -80v-559q0 -82 3 -96.5t22 -18.5q31 -8 90 -8q29 0 29 -17q0 -18 -35 -18 q2 0 -49 4q-61 4 -103 4l-213 -4q-10 -2 -24 -2q-23 0 -23 14q0 20 41 21q78 2 85 11t7 85l-2 621q-2 51 -5 60t-26 9l-59 -2q-8 -2 -20 -2q-23 0 -23 16zM297 1147q0 41 29.5 70.5t72.5 29.5q39 0 67 -29.5t28 -72.5q0 -41 -28 -67.5t-69 -26.5q-43 0 -71.5 27.5 t-28.5 68.5z" />
<glyph unicode="&#xf0;" horiz-adv-x="983" d="M63 420q0 201 122 335t307 134q113 0 182 -72q-61 199 -164 332q-4 -2 -28.5 -13.5t-57.5 -27.5l-94 -47q-27 -14 -70 -37q-53 -29 -67 -29q-23 0 -23 21q0 14 51 39l176 86q53 27 88 41q-39 53 -122.5 130t-143.5 109q-23 12 -22 17q0 10 18 10q51 0 178 -70 q80 -43 191 -143l71 35q113 55 131 55q20 0 21 -18q0 -14 -23 -25q-51 -23 -108 -49q-18 -10 -60 -29q303 -305 304 -696q0 -246 -144 -404q-117 -129 -291 -129q-170 0 -284 111q-138 133 -138 334zM250 416q0 -193 63.5 -301.5t175.5 -108.5q115 0 179.5 116t64.5 322 q0 414 -244 414q-113 0 -176 -117.5t-63 -324.5z" />
<glyph unicode="&#xf1;" horiz-adv-x="1001" d="M27 813q0 18 43 18q61 2 132.5 22.5t100.5 47.5q18 16 29 17q14 0 14 -39v-99q106 137 275 138q147 0 213 -109q37 -61 36 -234v-466q0 -66 7 -72q12 -12 59 -12q6 0 22 2h15q20 0 20 -15q0 -16 -30 -16h-25q-37 4 -100 4q-201 0 -238 -4h-14q-27 0 -27 14 q0 10 11.5 12.5t78.5 4.5q39 2 45 11t6 66v394q0 223 -16 266q-35 92 -139 92q-102 0 -172 -90q-20 -27 -21 -74l2 -639q0 -25 43 -26l62 -2q20 0 20 -15q0 -14 -24 -14h-33q-45 4 -143 4q-23 0 -98 -2t-87 -2h-12q-31 0 -31 14t37 19h51q31 0 37 14l6 31v446q0 233 -4 258 t-51 25q-14 0 -49 -4h-10q-41 0 -41 14zM211 1139q0 53 44 93t105 40q66 0 189 -62.5t151 -62.5q25 0 45 70q10 35 29 34q18 0 19 -16q0 -51 -42 -116.5t-122 -65.5q-55 0 -183.5 67.5t-152.5 67.5q-14 0 -27.5 -14.5t-13.5 -28.5q0 -23 31 -55q10 -6 10 -17q0 -14 -21 -14 q-20 0 -40.5 25.5t-20.5 54.5z" />
<glyph unicode="&#xf2;" horiz-adv-x="983" d="M63 442q0 205 122 340.5t304 135.5q184 0 308.5 -136.5t124.5 -339.5q0 -199 -121 -333t-301 -134q-186 0 -311.5 134t-125.5 333zM223 1358h35l59 2h109l84 -182q0 -2 22 -54l29 -67q4 -8 4 -13q0 -10 -12 -10q-20 0 -143 129zM250 442q0 -207 68.5 -322.5t191.5 -115.5 q94 0 139 72q86 135 86 368q0 225 -69 351q-51 92 -172 92q-115 0 -179.5 -118t-64.5 -327z" />
<glyph unicode="&#xf3;" horiz-adv-x="983" d="M63 442q0 205 122 340.5t304 135.5q184 0 308.5 -136.5t124.5 -339.5q0 -199 -121 -333t-301 -134q-186 0 -311.5 134t-125.5 333zM250 442q0 -207 68.5 -322.5t191.5 -115.5q94 0 139 72q86 135 86 368q0 225 -69 351q-51 92 -172 92q-115 0 -179.5 -118t-64.5 -327z M416 1044q0 4 4 13q23 55 67 160l66 143h68h28q27 -2 72 -2h37l-187 -195q-123 -129 -143 -129q-12 0 -12 10z" />
<glyph unicode="&#xf4;" horiz-adv-x="983" d="M63 442q0 205 122 340.5t304 135.5q184 0 308.5 -136.5t124.5 -339.5q0 -199 -121 -333t-301 -134q-186 0 -311.5 134t-125.5 333zM250 442q0 -207 68.5 -322.5t191.5 -115.5q94 0 139 72q86 135 86 368q0 225 -69 351q-51 92 -172 92q-115 0 -179.5 -118t-64.5 -327z M260 1034q0 8 12 17q94 94 174 266q33 72 52 72q16 0 55 -74q80 -154 195 -291h-136q-76 72 -149 227q-43 -88 -99.5 -159.5t-84.5 -71.5q-19 0 -19 14z" />
<glyph unicode="&#xf5;" horiz-adv-x="983" d="M63 442q0 205 122 340.5t304 135.5q184 0 308.5 -136.5t124.5 -339.5q0 -199 -121 -333t-301 -134q-186 0 -311.5 134t-125.5 333zM201 1139q0 53 44 93t105 40q66 0 189 -62.5t151 -62.5q25 0 45 70q10 35 29 34q18 0 18 -16q0 -51 -42 -116.5t-122 -65.5 q-55 0 -183 67.5t-152 67.5q-14 0 -27.5 -14.5t-13.5 -28.5q0 -23 30 -55q10 -6 11 -17q0 -14 -21 -14q-20 0 -40.5 25.5t-20.5 54.5zM250 442q0 -207 68.5 -322.5t191.5 -115.5q94 0 139 72q86 135 86 368q0 225 -69 351q-51 92 -172 92q-115 0 -179.5 -118t-64.5 -327z " />
<glyph unicode="&#xf6;" horiz-adv-x="983" d="M63 442q0 205 122 340.5t304 135.5q184 0 308.5 -136.5t124.5 -339.5q0 -199 -121 -333t-301 -134q-186 0 -311.5 134t-125.5 333zM213 1147q0 43 28.5 71.5t71.5 28.5q39 0 69 -30.5t30 -71.5q0 -39 -30 -67.5t-71 -28.5t-69.5 28.5t-28.5 69.5zM250 442 q0 -207 68.5 -322.5t191.5 -115.5q94 0 139 72q86 135 86 368q0 225 -69 351q-51 92 -172 92q-115 0 -179.5 -118t-64.5 -327zM567 1147q0 41 30 70.5t73 29.5q41 0 67.5 -29.5t26.5 -74.5q0 -39 -27.5 -65.5t-68.5 -26.5q-43 0 -72 27.5t-29 68.5z" />
<glyph unicode="&#xf7;" d="M121 651v74h850v-74h-850zM444 440q0 41 30 70t71 29t69.5 -29t28.5 -70q0 -43 -28.5 -71.5t-69.5 -28.5q-43 0 -72 28.5t-29 71.5zM444 940q0 41 29 69.5t72 28.5q41 0 69.5 -28.5t28.5 -69.5q0 -43 -28.5 -71.5t-69.5 -28.5q-43 0 -72 28.5t-29 71.5z" />
<glyph unicode="&#xf8;" horiz-adv-x="983" d="M63 444q0 201 122 337.5t300 136.5q117 0 217 -60l84 137q8 14 25 15q25 0 25 -21q0 -10 -15 -28l-78 -130q178 -147 179 -387q0 -201 -121 -335t-301 -134q-125 0 -234 68l-63 -104q-12 -20 -29 -21q-27 0 -27 21q2 6 7 14l10 18l63 103q-164 139 -164 370zM250 449 q0 -162 37 -277l379 627q-66 88 -172 88q-115 0 -179.5 -116.5t-64.5 -321.5zM311 119q82 -115 199 -115q115 0 172 129q53 121 53 305q0 170 -43 310z" />
<glyph unicode="&#xf9;" horiz-adv-x="1003" d="M10 879q0 14 35 14q37 0 107 -4q35 -2 41 -2q72 0 133 6v-571q0 -158 20 -209q33 -80 133 -80q109 0 160 90q37 66 37 209v317q0 70 -2 105l-4 67q-2 31 -13.5 36t-46.5 5q-86 -2 -86 19q0 12 43 12h19q16 -2 108 -2q123 0 152 2v-571q0 -147 6 -186.5t31.5 -45.5 t115.5 -6q25 0 25 -14t-45 -17q-160 -10 -281 -69q-8 -4 -14 -4q-12 0 -12 16l2 115q-94 -135 -264 -136q-152 0 -217 88q-27 37 -32 68t-5 166v469q0 72 -8.5 84t-55.5 14l-26 -2q-56 -3 -56 17zM231 1358h35l60 2h108l84 -182q0 -2 23 -54l28 -67q4 -8 4 -13 q0 -10 -12 -10q-20 0 -143 129z" />
<glyph unicode="&#xfa;" horiz-adv-x="1003" d="M10 879q0 14 35 14q37 0 107 -4q35 -2 41 -2q72 0 133 6v-571q0 -158 20 -209q33 -80 133 -80q109 0 160 90q37 66 37 209v317q0 70 -2 105l-4 67q-2 31 -13.5 36t-46.5 5q-86 -2 -86 19q0 12 43 12h19q16 -2 108 -2q123 0 152 2v-571q0 -147 6 -186.5t31.5 -45.5 t115.5 -6q25 0 25 -14t-45 -17q-160 -10 -281 -69q-8 -4 -14 -4q-12 0 -12 16l2 115q-94 -135 -264 -136q-152 0 -217 88q-27 37 -32 68t-5 166v469q0 72 -8.5 84t-55.5 14l-26 -2q-56 -3 -56 17zM426 1044q0 4 4 13q23 55 68 160l65 143h68h28q27 -2 72 -2h37l-186 -195 q-123 -129 -144 -129q-12 0 -12 10z" />
<glyph unicode="&#xfb;" horiz-adv-x="1003" d="M10 879q0 14 35 14q37 0 107 -4q35 -2 41 -2q72 0 133 6v-571q0 -158 20 -209q33 -80 133 -80q109 0 160 90q37 66 37 209v317q0 70 -2 105l-4 67q-2 31 -13.5 36t-46.5 5q-86 -2 -86 19q0 12 43 12h19q16 -2 108 -2q123 0 152 2v-571q0 -147 6 -186.5t31.5 -45.5 t115.5 -6q25 0 25 -14t-45 -17q-160 -10 -281 -69q-8 -4 -14 -4q-12 0 -12 16l2 115q-94 -135 -264 -136q-152 0 -217 88q-27 37 -32 68t-5 166v469q0 72 -8.5 84t-55.5 14l-26 -2q-56 -3 -56 17zM268 1034q0 8 13 17q94 94 174 266q33 72 51 72q16 0 55 -74 q80 -154 195 -291h-135q-76 72 -150 227q-43 -88 -99.5 -159.5t-84.5 -71.5q-19 0 -19 14z" />
<glyph unicode="&#xfc;" horiz-adv-x="1003" d="M10 879q0 14 35 14q37 0 107 -4q35 -2 41 -2q72 0 133 6v-571q0 -158 20 -209q33 -80 133 -80q109 0 160 90q37 66 37 209v317q0 70 -2 105l-4 67q-2 31 -13.5 36t-46.5 5q-86 -2 -86 19q0 12 43 12h19q16 -2 108 -2q123 0 152 2v-571q0 -147 6 -186.5t31.5 -45.5 t115.5 -6q25 0 25 -14t-45 -17q-160 -10 -281 -69q-8 -4 -14 -4q-12 0 -12 16l2 115q-94 -135 -264 -136q-152 0 -217 88q-27 37 -32 68t-5 166v469q0 72 -8.5 84t-55.5 14l-26 -2q-56 -3 -56 17zM223 1147q0 43 29 71.5t72 28.5q39 0 68.5 -30.5t29.5 -71.5 q0 -39 -30 -67.5t-70 -28.5q-41 0 -70 28.5t-29 69.5zM578 1147q0 41 29.5 70.5t72.5 29.5q41 0 67.5 -29.5t26.5 -74.5q0 -39 -27.5 -65.5t-68.5 -26.5q-43 0 -71.5 27.5t-28.5 68.5z" />
<glyph unicode="&#xfd;" horiz-adv-x="821" d="M-55 879q0 16 26 16q23 0 70 -3t72 -3h37q43 2 118 4l105 2q23 0 22 -16q0 -14 -76 -17q-63 -2 -63 -20q0 -16 41 -127q16 -47 35 -99l35 -102q14 -45 75 -205q20 -49 45 -119q197 616 197 648q0 18 -15.5 22t-86.5 4q-20 0 -21 17q0 14 25 14q10 0 16 -2q70 -4 115 -4 h57q37 0 48.5 2t27.5 2q18 0 18 -14t-49 -16.5t-62.5 -8.5t-23.5 -35l-14 -37l-17 -51q-29 -94 -86 -280q-162 -520 -268 -807q-66 -174 -180 -174q-49 0 -81 28.5t-32 73.5q0 39 25.5 63.5t66.5 24.5q55 0 80 -45q18 -35 31 -35q18 0 57 101q57 150 91 268 q-152 397 -259 694q-74 203 -81 205q-12 10 -66.5 10.5t-54.5 20.5zM373 1044q0 4 4 13q23 55 67 160l66 143h68h28q27 -2 72 -2h37l-187 -195q-123 -129 -143 -129q-12 0 -12 10z" />
<glyph unicode="&#xfe;" horiz-adv-x="1001" d="M4 -496q0 18 25 19h61q59 0 64 26q2 12 2 189v1515q0 68 -4 74q-6 16 -33 16h-17l-57 -2q-29 0 -29 19q0 14 52 18q90 0 188 47q10 8 37 19l16 6q14 -53 15 -182q0 -25 -2 -47v-402q84 100 210 101q168 0 275 -115q131 -141 131 -350q0 -207 -114.5 -343.5t-288.5 -136.5 q-137 0 -209 99l2 -518q2 -20 23.5 -25.5t115.5 -7.5q25 0 25 -19q0 -14 -33 -14h-33q-20 2 -109 2q10 0 -51 -2h-155h-52q-55 0 -55 14zM324 713l2 -21v-35v-155q0 -266 8 -338q8 -63 60 -108.5t120 -45.5q113 0 177.5 121t64.5 328q0 195 -69 309.5t-183 114.5 q-70 0 -125 -52t-55 -118z" />
<glyph unicode="&#xff;" horiz-adv-x="821" d="M-55 879q0 16 26 16q23 0 70 -3t72 -3h37q43 2 118 4l105 2q23 0 22 -16q0 -14 -76 -17q-63 -2 -63 -20q0 -16 41 -127q16 -47 35 -99l35 -102q14 -45 75 -205q20 -49 45 -119q197 616 197 648q0 18 -15.5 22t-86.5 4q-20 0 -21 17q0 14 25 14q10 0 16 -2q70 -4 115 -4 h57q37 0 48.5 2t27.5 2q18 0 18 -14t-49 -16.5t-62.5 -8.5t-23.5 -35l-14 -37l-17 -51q-29 -94 -86 -280q-162 -520 -268 -807q-66 -174 -180 -174q-49 0 -81 28.5t-32 73.5q0 39 25.5 63.5t66.5 24.5q55 0 80 -45q18 -35 31 -35q18 0 57 101q57 150 91 268 q-152 397 -259 694q-74 203 -81 205q-12 10 -66.5 10.5t-54.5 20.5zM152 1147q0 43 28.5 71.5t71.5 28.5q39 0 68.5 -30.5t29.5 -71.5q0 -39 -29.5 -67.5t-70.5 -28.5t-69.5 28.5t-28.5 69.5zM506 1147q0 41 29.5 70.5t72.5 29.5q41 0 67.5 -29.5t26.5 -74.5 q0 -39 -27.5 -65.5t-68.5 -26.5q-43 0 -71.5 27.5t-28.5 68.5z" />
<glyph unicode="&#x152;" horiz-adv-x="1937" d="M86 705q0 229 106.5 412t282.5 259q119 51 303 58q-82 -4 314 -7l276 -2q393 -2 461 7q10 -123 26 -332q2 -10 3 -27q0 -20 -19 -20q-14 0 -18 22q-33 188 -110 248.5t-370 60.5q-111 0 -174 -2v-608h95q201 0 246.5 37t58.5 201q4 43 22 43q23 0 23 -37v-25 q0 -74 -5 -126t-5 -66q0 -223 10 -301q2 -16 2 -31q0 -31 -21 -31q-14 0 -19 19.5t-20 122.5q-16 129 -139 147q-33 4 -248 8v-694q66 -2 150 -2q180 0 237 6q162 16 222 76q31 31 40 60.5t29 156.5q6 37 31 37q20 0 20 -51l-2 -39q-6 -117 -6 -211v-86q-211 10 -647 10 h-323q-207 0 -271 10q-248 39 -404.5 234t-156.5 463zM291 725q0 -330 131 -511t366 -181q111 0 136 12q41 20 41 107v1134q0 74 -39 92q-20 10 -103 11q-150 0 -231 -35q-301 -127 -301 -629z" />
<glyph unicode="&#x153;" horiz-adv-x="1525" d="M63 446q0 201 123 336.5t306 135.5q193 0 313 -148q135 147 305 148q195 0 299 -134q55 -72 61 -170q-51 -6 -79 -6h-195q-63 0 -291 -6q-10 -61 -10 -129q0 -207 80 -318.5t227 -111.5q84 0 133 43q57 49 84 107q20 45 39 45q16 0 17 -15q0 -37 -62 -119 q-98 -129 -276 -129q-197 0 -326 170q-119 -170 -315 -170q-184 0 -308.5 135t-124.5 336zM252 436q0 -205 68.5 -318.5t193.5 -113.5q92 0 137 70q86 131 86 375q0 221 -71 346q-53 94 -170 94q-115 0 -179.5 -120t-64.5 -333zM911 641h385q-2 248 -178 248 q-160 0 -207 -248z" />
<glyph unicode="&#x178;" horiz-adv-x="1243" d="M-35 1411q0 16 33 16q43 0 172 -4q74 -2 106 -2l238 2q14 2 33 2q37 0 37 -20q0 -18 -70 -19q-127 0 -127 -45q0 -35 129 -280l186 -354q51 92 117 227l121 244q68 131 68 172q0 27 -35 30q-72 10 -96 9q-45 -2 -46 20q0 16 39 16l119 -2l68 2q209 6 209 -20 q0 -16 -35 -16q-113 -2 -139 -39q-25 -23 -177 -349q-68 -145 -127 -256q-41 -76 -47 -103.5t-6 -119.5v-387q0 -68 17.5 -80t121.5 -18q55 -4 56 -21q0 -16 -29 -16h-24l-287 6q-121 0 -199 -4q-12 -2 -29 -2q-29 0 -28 18q0 18 47 21q113 4 133.5 20.5t20.5 98.5v432 q-20 45 -119 239l-205 406q-31 59 -74 133q-23 20 -97.5 20t-74.5 23zM367 1667q0 43 28.5 71.5t69.5 28.5t70.5 -30.5t29.5 -71.5q0 -39 -29.5 -67.5t-70.5 -28.5t-69.5 28.5t-28.5 69.5zM721 1665q0 41 29.5 70.5t72.5 29.5q41 0 68 -29.5t27 -74.5q0 -39 -28 -65.5 t-69 -26.5q-43 0 -71.5 27.5t-28.5 68.5z" />
<glyph unicode="&#x2c6;" horiz-adv-x="1026" d="M279 1034q0 8 12 17q94 94 174 266q33 72 51 72q16 0 55 -74q80 -154 195 -291h-135q-76 72 -150 227q-43 -88 -99 -159.5t-85 -71.5q-18 0 -18 14z" />
<glyph unicode="&#x2dc;" horiz-adv-x="1026" d="M223 1139q0 53 44 93t106 40q66 0 188.5 -62.5t151.5 -62.5q25 0 45 70q10 35 28 34q18 0 19 -16q0 -51 -42 -116.5t-122 -65.5q-55 0 -183 67.5t-153 67.5q-14 0 -27.5 -14.5t-13.5 -28.5q0 -23 31 -55q10 -6 10 -17q0 -14 -20 -14t-41 25.5t-21 54.5z" />
<glyph unicode="&#x2000;" horiz-adv-x="958" />
<glyph unicode="&#x2001;" horiz-adv-x="1916" />
<glyph unicode="&#x2002;" horiz-adv-x="958" />
<glyph unicode="&#x2003;" horiz-adv-x="1916" />
<glyph unicode="&#x2004;" horiz-adv-x="638" />
<glyph unicode="&#x2005;" horiz-adv-x="479" />
<glyph unicode="&#x2006;" horiz-adv-x="319" />
<glyph unicode="&#x2007;" horiz-adv-x="319" />
<glyph unicode="&#x2008;" horiz-adv-x="239" />
<glyph unicode="&#x2009;" horiz-adv-x="382" />
<glyph unicode="&#x200a;" horiz-adv-x="106" />
<glyph unicode="&#x2010;" horiz-adv-x="624" d="M31 406v106h563v-106h-563z" />
<glyph unicode="&#x2011;" horiz-adv-x="624" d="M31 406v106h563v-106h-563z" />
<glyph unicode="&#x2012;" horiz-adv-x="624" d="M31 406v106h563v-106h-563z" />
<glyph unicode="&#x2013;" horiz-adv-x="1013" d="M49 406v106h914v-106h-914z" />
<glyph unicode="&#x2014;" horiz-adv-x="1243" d="M43 406v106h1155v-106h-1155z" />
<glyph unicode="&#x2018;" horiz-adv-x="536" d="M113 1192q0 152 118 217q86 47 138 47q23 0 22 -16q0 -14 -24 -21q-168 -45 -168 -172q0 -53 28 -92q4 70 86 70q45 0 75 -30t30 -73q0 -51 -38 -87t-91 -36q-78 0 -127 54.5t-49 138.5z" />
<glyph unicode="&#x2019;" horiz-adv-x="536" d="M119 1321q0 51 38 87t93 36q76 0 125 -54.5t49 -138.5q0 -150 -119 -217q-82 -47 -137 -47q-23 0 -23 17q0 14 25 20q94 27 131 63.5t37 106.5q0 55 -27 94q0 -70 -88 -69q-45 0 -74.5 29.5t-29.5 72.5z" />
<glyph unicode="&#x201a;" horiz-adv-x="536" d="M119 82q0 51 38 87t93 36q76 0 125 -54.5t49 -136.5q0 -150 -119 -217q-84 -47 -137 -47q-23 0 -23 17q0 14 25 20q94 27 131 63.5t37 106.5q0 53 -27 92q0 -70 -88 -69q-45 0 -74.5 29.5t-29.5 72.5z" />
<glyph unicode="&#x201c;" horiz-adv-x="913" d="M119 1192q0 152 119 217q86 47 137 47q23 0 22 -16q0 -14 -24 -21q-168 -45 -168 -172q0 -53 28 -92q4 70 86 70q45 0 75 -30t30 -73q0 -51 -38 -87t-91 -36q-78 0 -127 54.5t-49 138.5zM494 1190q0 154 118 219q86 47 140 47q23 0 22 -16q0 -14 -24 -21 q-170 -45 -170 -170q0 -55 28 -94q4 70 88 70q45 0 75 -30t30 -73q0 -51 -38 -87t-93 -36q-76 0 -126 53.5t-50 137.5z" />
<glyph unicode="&#x201d;" horiz-adv-x="913" d="M113 1321q0 51 37.5 87t93.5 36q76 0 125 -54.5t49 -138.5q0 -150 -119 -217q-82 -47 -137 -47q-23 0 -23 17q0 14 25 20q94 27 131 63.5t37 106.5q0 55 -27 94q0 -70 -88 -69q-45 0 -74.5 29.5t-29.5 72.5zM487 1321q0 51 38 87t93 36q78 0 127.5 -54.5t49.5 -138.5 q0 -152 -119 -217q-86 -47 -139 -47q-23 0 -23 17q0 14 25 20q94 27 132 64.5t38 103.5q0 57 -29 96q-4 -70 -88 -69q-45 0 -75 29.5t-30 72.5z" />
<glyph unicode="&#x201e;" horiz-adv-x="913" d="M113 82q0 51 37.5 87t91.5 36q76 0 126 -53.5t50 -137.5q0 -150 -119 -217q-84 -47 -137 -47q-23 0 -23 17q0 14 25 20q94 27 131 63.5t37 106.5q0 53 -27 92q0 -70 -88 -69q-45 0 -74.5 29.5t-29.5 72.5zM487 82q0 51 38 87t93 36q76 0 126.5 -53.5t50.5 -137.5 q0 -152 -119 -217q-86 -47 -139 -47q-23 0 -23 17q0 14 25 20q94 27 132 63.5t38 104.5q0 57 -29 94q-4 -70 -88 -69q-45 0 -75 29.5t-30 72.5z" />
<glyph unicode="&#x2022;" horiz-adv-x="1419" d="M418 721q0 125 86 210t213 85q119 0 205 -87t86 -208q0 -123 -86 -209t-209 -86t-209 86t-86 209z" />
<glyph unicode="&#x2026;" horiz-adv-x="1589" d="M154 98q0 45 31.5 77t78.5 32q45 0 77 -32t32 -79q0 -45 -32 -76.5t-77 -31.5q-47 0 -78.5 31.5t-31.5 78.5zM684 98q0 47 33 79t80 32q45 0 76.5 -33t31.5 -78t-31.5 -77.5t-78.5 -32.5q-45 0 -78 32.5t-33 77.5zM1214 98q0 45 33 77t80 32q45 0 76 -32t31 -79 q0 -45 -31 -76.5t-78 -31.5t-79 31.5t-32 78.5z" />
<glyph unicode="&#x202f;" horiz-adv-x="382" />
<glyph unicode="&#x2039;" horiz-adv-x="522" d="M100 434q0 51 3 63.5t24 26.5q176 168 268 281q20 25 33 24q16 0 16 -16q0 -39 -206 -350q68 -106 202 -316q8 -12 9 -22q0 -14 -13 -14q-10 0 -20 12q-193 188 -301 285q-15 12 -15 26z" />
<glyph unicode="&#x203a;" horiz-adv-x="522" d="M76 815q0 12 12 12q10 0 21 -12q176 -172 299 -283q14 -12 14 -26q0 -51 -3 -63.5t-24 -28.5q-152 -133 -268 -279q-20 -25 -33 -24q-16 0 -16 18q0 37 207 348q-43 63 -201 316q-8 16 -8 22z" />
<glyph unicode="&#x205f;" horiz-adv-x="479" />
<glyph unicode="&#x2122;" horiz-adv-x="1499" d="M39 1253q0 66 14 172q14 2 35 2h39l78 -2h88l45 -2q166 -8 297 7q2 -20 10 -97q6 -59 6 -94q0 -16 -16 -16q-23 0 -25 28q-12 147 -145 144l-64 -2v-605q0 -31 10.5 -37t61.5 -8q20 0 21 -14q0 -14 -29 -14h-12q-20 2 -72 2h-84h-51q-31 -2 -33 -2q-29 0 -29 14t31 14h23 q31 0 36 7.5t5 44.5v598h-11q-102 0 -133 -17q-49 -27 -57 -114q-4 -35 -21 -35q-18 -1 -18 26zM668 1409q0 12 14 14t102 2h95l8 -20l55 -139q43 -102 131 -332q39 121 119 348q23 63 49 143q61 2 158 2h20q45 0 45 -16q0 -14 -46 -16t-52 -21q-2 -6 -2 -110v-467 q0 -39 6 -45.5t72 -6.5q29 0 28 -16q0 -14 -28 -14h-15q-2 0 -22 2h-35h-53q-127 0 -139 -2h-11q-29 0 -28 14q0 16 32 16q59 0 65.5 6.5t6.5 67.5v471q-61 -178 -172 -516q-14 -49 -29 -49q-14 0 -32 51q-47 129 -195 498v-492q0 -23 5 -30t42 -7q45 0 45 -14t-33 -14h-24 q-16 2 -33 2q4 0 -119 -4q-29 0 -28 14q0 16 69 16q20 0 23.5 7.5t3.5 48.5v483q0 78 -5 91.5t-34 15.5q-59 4 -59 18z" />
<glyph unicode="&#xe000;" horiz-adv-x="895" d="M0 895h895v-895h-895v895z" />
<glyph unicode="&#xfb01;" horiz-adv-x="1054" d="M588 829q0 14 35 17q137 6 235 65l21 13q16 -31 16 -113q0 4 0 -20q-2 -25 -2 -80v-559q0 -82 3 -96.5t22 -18.5q31 -8 90 -8q29 0 29 -17q0 -18 -35 -18q2 0 -49 4q-61 4 -103 4l-213 -4q-10 -2 -24 -2q-23 0 -23 14q0 20 41 21q78 2 85 11t7 85l-2 621q-2 51 -5 60 t-25 9l-60 -2q-8 -2 -20 -2q-23 0 -23 16zM699 1284q0 96 92 96t92 -92t-92 -92q-39 0 -65.5 25.5t-26.5 62.5zM33 10q0 16 28 17q102 0 113 12q4 4 4 12l2 27v778q-76 0 -88 2t-12 16q0 18 37 19h65q8 260 70 375q94 176 283 176q90 0 147 -43t57 -113q0 -43 -25.5 -70.5 t-66.5 -27.5q-39 0 -65.5 24.5t-26.5 61.5q0 31 27 72q6 10 6 18q0 47 -68 47q-115 0 -151 -147q-18 -78 -19 -273v-100h135q41 0 41 -19q0 -18 -53 -18h-123v-801q0 -29 58 -28h27q62 0 69 -9q2 -2 2 -8q0 -14 -25 -14q-12 0 -20 2l-168 2l-223 -4q-37 0 -37 14z" />
<glyph unicode="&#xfb02;" horiz-adv-x="1021" d="M557 1360q0 16 52 18q98 6 182 45l43 21l16 6q15 -53 15 -154v-26l-2 -146l2 -1003q0 -61 2 -72.5t14 -15.5q2 -2 76 -4q47 0 47 -15q0 -18 -27 -18h-24q-4 0 -109 4l-63 2q-16 0 -164 -6q-12 -2 -25 -2h-5q-25 0 -26 18q0 14 23 15h53q57 0 58 24q2 12 2 160v1042 q0 68 -4 74q-6 16 -33 16h-17l-57 -2q-29 1 -29 19zM33 10q0 16 28 17q102 0 113 12q4 4 4 12l2 27v778q-76 0 -88 2t-12 16q0 18 37 19h65q8 260 70 375q94 176 283 176q90 0 147 -43t57 -113q0 -43 -25.5 -70.5t-66.5 -27.5q-39 0 -65.5 24.5t-26.5 61.5q0 31 27 72 q6 10 6 18q0 47 -68 47q-115 0 -151 -147q-18 -78 -19 -273v-100h135q41 0 41 -19q0 -18 -53 -18h-123v-801q0 -29 58 -28h27q62 0 69 -9q2 -2 2 -8q0 -14 -25 -14q-12 0 -20 2l-168 2l-223 -4q-37 0 -37 14z" />
<glyph unicode="&#xfb03;" horiz-adv-x="1595" d="M1128 829q0 14 35 17q137 6 235 65l21 13q16 -31 16 -113q0 4 0 -20q-2 -25 -2 -80v-559q0 -82 3 -96.5t22 -18.5q31 -8 90 -8q29 0 29 -17q0 -18 -35 -18q2 0 -49 4q-61 4 -103 4l-213 -4q-10 -2 -24 -2q-23 0 -23 14q0 20 41 21q78 2 85 11t7 85l-2 621q-2 51 -5 60 t-25 9l-60 -2q-8 -2 -20 -2q-23 0 -23 16zM1239 1284q0 96 92 96t92 -92t-92 -92q-39 0 -65.5 25.5t-26.5 62.5zM574 10q0 16 28 17q102 0 113 12q4 4 4 12l2 27v778q-76 0 -88 2t-12 16q0 18 37 19h65q8 260 70 375q94 176 283 176q90 0 147 -43t57 -113q0 -43 -25.5 -70.5 t-66.5 -27.5q-39 0 -65.5 24.5t-26.5 61.5q0 31 27 72q6 10 6 18q0 47 -68 47q-115 0 -151 -147q-18 -78 -19 -273v-100h135q41 0 41 -19q0 -18 -53 -18h-123v-801q0 -29 58 -28h27q62 0 69 -9q2 -2 2 -8q0 -14 -25 -14q-12 0 -20 2l-168 2l-223 -4q-37 0 -37 14zM33 10 q0 16 28 17q102 0 113 12q4 4 4 12l2 27v778q-76 0 -88 2t-12 16q0 18 37 19h65q8 260 70 375q94 176 283 176q90 0 147 -43t57 -113q0 -43 -25.5 -70.5t-66.5 -27.5q-39 0 -65.5 24.5t-26.5 61.5q0 31 27 72q6 10 6 18q0 47 -68 47q-115 0 -151 -147q-18 -78 -19 -273v-100 h135q41 0 41 -19q0 -18 -53 -18h-123v-801q0 -29 58 -28h27q62 0 69 -9q2 -2 2 -8q0 -14 -25 -14q-12 0 -20 2l-168 2l-223 -4q-37 0 -37 14z" />
<glyph unicode="&#xfb04;" horiz-adv-x="1562" d="M1097 1360q0 16 52 18q98 6 182 45l43 21l16 6q15 -53 15 -154v-26l-2 -146l2 -1003q0 -61 2 -72.5t14 -15.5q2 -2 76 -4q47 0 47 -15q0 -18 -27 -18h-24q-4 0 -109 4l-63 2q-16 0 -164 -6q-12 -2 -25 -2h-5q-25 0 -26 18q0 14 23 15h53q57 0 58 24q2 12 2 160v1042 q0 68 -4 74q-6 16 -33 16h-17l-57 -2q-29 1 -29 19zM574 10q0 16 28 17q102 0 113 12q4 4 4 12l2 27v778q-76 0 -88 2t-12 16q0 18 37 19h65q8 260 70 375q94 176 283 176q90 0 147 -43t57 -113q0 -43 -25.5 -70.5t-66.5 -27.5q-39 0 -65.5 24.5t-26.5 61.5q0 31 27 72 q6 10 6 18q0 47 -68 47q-115 0 -151 -147q-18 -78 -19 -273v-100h135q41 0 41 -19q0 -18 -53 -18h-123v-801q0 -29 58 -28h27q62 0 69 -9q2 -2 2 -8q0 -14 -25 -14q-12 0 -20 2l-168 2l-223 -4q-37 0 -37 14zM33 10q0 16 28 17q102 0 113 12q4 4 4 12l2 27v778q-76 0 -88 2 t-12 16q0 18 37 19h65q8 260 70 375q94 176 283 176q90 0 147 -43t57 -113q0 -43 -25.5 -70.5t-66.5 -27.5q-39 0 -65.5 24.5t-26.5 61.5q0 31 27 72q6 10 6 18q0 47 -68 47q-115 0 -151 -147q-18 -78 -19 -273v-100h135q41 0 41 -19q0 -18 -53 -18h-123v-801q0 -29 58 -28 h27q62 0 69 -9q2 -2 2 -8q0 -14 -25 -14q-12 0 -20 2l-168 2l-223 -4q-37 0 -37 14z" />
</font>
</defs>
</svg>
